caballeros del zodiaco contra atacan dvdri platino

Los caballeros del zodiaco dvdrip latino avi xvid

Hola nuevamente aqui con otro aporte, hoy les comparto esta pelicula de los caballeros del zodiaco, en dvdrip latino xvid, son ripeadas de los memorial box que yo tengo, compatible con reproductores usb, esta version incluye 2 audios latinos el que todos conocimos desde siempre, y el redoblaje que se hizo 


Febo Abel, dios del Sol y hermano de Atenea, retorna a la Tierra y resucita a los santos de oro muertos en la batalla de las doce casas, a fin de llevarse a su hermana y extinguir a la humanidad, considerando que ha llegado a un estado decadente. No obstante, los santos de bronce, quienes aparentemente son abandonados por Saori, evitarán que Abel cumpla su propósito, por lo que deberán enfrentarse a los santos de oro y a los tres misteriosos santos de la Corona.

capturas







General 1,09 GB (1.173.895.168 bytes)

Format                         : AVI
Format/Info                    : Audio Video Interleave
File size                      : 1.09 GiB
Duration                       : 1h 14mn
Overall bit rate               : 2 093 Kbps
Writing application            : VirtualDubMod 1.5.4.1 (build 2178/release)
Writing library                : VirtualDubMod build 2178/release

Video
ID                             : 0
Format                         : MPEG-4 Visual
Format profile                 : Advanced [email protected]
Format settings, BVOP          : 1
Format settings, QPel          : No
Format settings, GMC           : No warppoints
Format settings, Matrix        : Custom
Codec ID                       : XVID
Codec ID/Hint                  : XviD
Duration                       : 1h 14mn
Bit rate                       : 1 825 Kbps
Width                          : 720 pixels
Height                         : 400 pixels
Display aspect ratio           : 16:9
Frame rate                     : 29.970 fps
Color space                    : YUV
Chroma subsampling             : 4:2:0
Bit depth                      : 8 bits
Scan type                      : Progressive
Compression mode               : Lossy
Bits/(Pixel*Frame)             : 0.211
Stream size                    : 976 MiB (87%)
Writing library                : XviD 64

Audio #1
ID                             : 1
Format                         : MPEG Audio
Format version                 : Version 1
Format profile                 : Layer 3
Mode                           : Joint stereo
Mode extension                 : MS Stereo
Codec ID                       : 55
Codec ID/Hint                  : MP3
Duration                       : 1h 14mn
Bit rate mode                  : Constant
Bit rate                       : 128 Kbps
Channel(s)                     : 2 channels
Sampling rate                  : 48.0 KHz
Compression mode               : Lossy
Stream size                    : 68.5 MiB (6%)
Alignment                      : Aligned on interleaves
Interleave, duration           : 67 ms (2.00 video frames)
Interleave, preload duration   : 504 ms
Writing library                : LAME3.98r
Encoding settings              : -m j -V 4 -q 2 -lowpass 17 -b 128
Language                       : Espanol

Audio #2
ID                             : 2
Format                         : MPEG Audio
Format version                 : Version 1
Format profile                 : Layer 3
Mode                           : Joint stereo
Mode extension                 : MS Stereo
Codec ID                       : 55
Codec ID/Hint                  : MP3
Duration                       : 1h 14mn
Bit rate mode                  : Constant
Bit rate                       : 128 Kbps
Channel(s)                     : 2 channels
Sampling rate                  : 48.0 KHz
Compression mode               : Lossy
Stream size                    : 68.5 MiB (6%)
Alignment                      : Aligned on interleaves
Interleave, duration           : 67 ms (2.00 video frames)
Interleave, preload duration   : 504 ms
Writing library                : LAME3.98r
Encoding settings              : -m j -V 4 -q 2 -lowpass 17 -b 128
Language                       : Espanol


















descarga zippyshare



descarga billionuploads



caballeros del zodiaco contra atacan dvdri platino
8 Puntos Score: 4/10
Visitas: 1895 Favoritos: 5
Ver los usuarios que votaron...
4 Comentarios caballeros del zodiaco contra atacan dvdri platino
ThanX por la peli I love you
Para dejar un comentario Registrate! o.. eres ya usuario? Accede!