Caballerosdelzodiacolabatalladelosdioseslatin xvid

Los caballeros del zodiaco y la gran batalla de los dioses dvrip latino xvid compatibles con reproductores usb

Saludos gente de identi hoy les quiero compartir esta pelicula de los caballeros del zodiaco, ire subiedo las demas en dvdrip latino son ripeadas de los memorial box que yo tengo 



Seiya y los demas santos dejan japon,para dirigirse hacia asgard donde deberan buscar a hyoga que ha desaparecido 

Aqui unas capturas 







Format                                   : AVI
Format/Info                              : Audio Video Interleave
File size                                : 700 MiB
Duration                                 : 45mn 54s
Overall bit rate                         : 2 132 Kbps
Writing application                      : VirtualDubMod 1.5.4.1 (build 2178/release)
Writing library                          : VirtualDubMod build 2178/release

Video
ID                                       : 0
Format                                   : MPEG-4 Visual
Format profile                           : Advanced [email protected]
Format settings, BVOP                    : 1
Format settings, QPel                    : No
Format settings, GMC                     : No warppoints
Format settings, Matrix                  : Custom
Codec ID                                 : XVID
Codec ID/Hint                            : XviD
Duration                                 : 45mn 54s
Bit rate                                 : 1 995 Kbps
Width                                    : 720 pixels
Height                                   : 400 pixels
Display aspect ratio                     : 16:9
Frame rate                               : 29.970 fps
Color space                              : YUV
Chroma subsampling                       : 4:2:0
Bit depth                                : 8 bits
Scan type                                : Progressive
Compression mode                         : Lossy
Bits/(Pixel*Frame)                       : 0.231
Stream size                              : 655 MiB (94%)
Writing library                          : XviD 64

Audio
ID                                       : 1
Format                                   : MPEG Audio
Format version                           : Version 1
Format profile                           : Layer 3
Mode                                     : Joint stereo
Mode extension                           : MS Stereo
Codec ID                                 : 55
Codec ID/Hint                            : MP3
Duration                                 : 45mn 54s
Bit rate mode                            : Constant
Bit rate                                 : 128 Kbps
Channel(s)                               : 2 channels
Sampling rate                            : 48.0 KHz
Compression mode                         : Lossy
Stream size                              : 42.0 MiB (6%)
Alignment                                : Aligned on interleaves
Interleave, duration                     : 67 ms (2.00 video frames)
Interleave, preload duration             : 504 ms
Language                                 : Espanol

descarga zippyshare
 



descarga billionuploads 
 





deja tu comentario




Caballerosdelzodiacolabatalladelosdioseslatin xvid
30 Puntos Score: 10/10
Visitas: 1319 Favoritos: 1
Ver los usuarios que votaron...
11 Comentarios Caballerosdelzodiacolabatalladelosdioseslatin xvid

orale tienes el vhs todavia
@merjurio no esas fotos las encontre en la red   pero hace mucho tiempo si las alcance a tener en mis manos, en vhs, porque mi tio tenia un video y rentaba esas y muchas peliculas que buenos tiempos
@vanesinga disculpa pero no te entiendo que quieres decir
Te dejo puntos porque dejastes toda la informacion del video
Hola, te soy sincero, ya la tengo y en excelente formato, pero todos modo te dejo punto algo que casi no hago, por dos cosa, como dijo Jordanr4, muy buena informaci?
una preugnta me recomiendan bajarlo???
@juanw200 Tu avatar, LA REEEEEEEEEETA
@xicomario eso depende de ti ya que hay muchas mas opciones en la red, pero ahi gente que le gusta tener asi en formato xvid es mas facil si tienes un reproductor de usb te lo lee sin problemas
Para dejar un comentario Registrate! o.. eres ya usuario? Accede!