resurreccion christopher lambert1999 dvdrip latino


Género: Thriller. Intriga.
Sinopsis: El detective John Proudhomme, recientemente trasladado a Chicago, y su compañero descubre un espeluznante crimen. La víctima yace inmersa en un charco de sangre, con el brazo amputado y un mensaje escrito con sangre en la ventana que dice "ya viene?". Los dos policía sospechan que éste es sólo el principio de una serie de horribles asesinatos, todos ellos con un mismo ritual: amputar una parte del cuerpo. El objetivo del asesino es el de reconstruir el cuerpo de Cristo para el Domingo de Resurrecion

[/right]
AÑO    1999
DURACIÓN 105 min.
PAÍS Estados Unidos
DIRECTOR Russell Mulcahy
GUIÓN   Brad Mirman
MÚSICA Jim McGrath
FOTOGRAFÍA Jonathan Freeman
REPARTO Christopher Lambert, Robert Joy, Leland Orser, Barbara Tyson, Rick Fox, James Kidnie, Philip Williams
PRODUCTORA Interlight Pictures / Baldwin-Cohen Productions

Trailer

Detalles de la descarga tamaño 1,18 GB (1.273.344.000 bytes) idioma español latino calidad dvdrip
General
Complete name                            : F:resurreccion.avi
Format                                   : AVI
Format/Info                              : Audio Video Interleave
File size                                : 1.19 GiB
Duration                                 : 1h 43mn
Overall bit rate                         : 1 643 Kbps
Writing application                      : VirtualDubMod 1.5.10.2 (build 2540/release)
Writing library                          : VirtualDubMod build 2540/release

Video
ID                                       : 0
Format                                   : MPEG-4 Visual
Format profile                           : Advanced [email protected]
Format settings, BVOP                    : 1
Format settings, QPel                    : No
Format settings, GMC                     : No warppoints
Format settings, Matrix                  : Default (H.263)
Muxing mode                              : Packed bitstream
Codec ID                                 : XVID
Codec ID/Hint                            : XviD
Duration                                 : 1h 43mn
Bit rate                                 : 1 505 Kbps
Width                                    : 704 pixels
Height                                   : 384 pixels
Display aspect ratio                     : 1.85:1
Frame rate                               : 25.000 fps
Color space                              : YUV
Chroma subsampling                       : 4:2:0
Bit depth                                : 8 bits
Scan type                                : Progressive
Compression mode                         : Lossy
Bits/(Pixel*Frame)                       : 0.223
Stream size                              : 1.09 GiB (92%)
Writing library                          : XviD 1.2.1 (UTC 2008-12-04)

Audio
ID                                       : 1
Format                                   : MPEG Audio
Format version                           : Version 1
Format profile                           : Layer 3
Mode                                     : Joint stereo
Mode extension                           : MS Stereo
Codec ID                                 : 55
Codec ID/Hint                            : MP3
Duration                                 : 1h 43mn
Bit rate mode                            : Constant
Bit rate                                 : 128 Kbps
Channel(s)                               : 2 channels
Sampling rate                            : 48.0 KHz
Compression mode                         : Lossy
Stream size                              : 94.6 MiB (8%)
Alignment                                : Aligned on interleaves
Interleave, duration                     : 40 ms (1.00 video frame)
Interleave, preload duration             : 504 ms
BILLIONUPLOADS 


ZIPPYSHARE
resurreccion christopher lambert1999 dvdrip latino
0 Puntos Score: 0/10
Visitas: 4011 Favoritos: 2
6 Comentarios resurreccion christopher lambert1999 dvdrip latino
MUY BUENA PELICULA DE LAS POCAS QUE ME GUSTAN DE ESTE ACTOR  
No sabia de esta peli, se ve interesante!
GRACIAS AMIGO!!!!!!!!!
por fin la encuentro en latino. por casualidad tendras sliver invasion a la intimidad en latino?
hola hermanito serias tan amable de resubir la peli porque los link estan caidos y la esta peli es fenomenal porfa
juanw200 saludos amigo, un favor vuelve a resubir la peli se te agradece la peticion saludos y gracias
Para dejar un comentario Registrate! o.. eres ya usuario? Accede!