Jovenes Pistoleros Young Guns 1988 BrRiplatino720p

Young Guns [Jovenes Pistoleros] [1988] [BrRip 720p Avi] [Latino]




Young Guns (Demasiado jóvenes para morir en Latinoamérica y Arma joven en España) es una película estadounidense de 1988, del género western, dirigida por Christopher Cain, protagonizada por Emilio Estévez, Kiefer Sutherland, Lou Diamond Phillips, Charlie Sheen, Dermot Mulroney y Casey Siemaszko en los papeles principales.
Es un recuento de forma ficticia de las aventuras de Billy The Kid (Emilio Estévez) durante la guerra del condado Lincoln, que tuvo lugar en Nuevo México durante 1877-1878.

John Tunstall, un educado hombre inglés y ganadero del condado de Lincoln, Nuevo México, contrata a jóvenes pistoleros caprichosos para que vivan y trabajen en su hacienda. La hacienda de Tunstall está en seria competencia con otro ganadero llamado Murphy, y sus hombres tienen un conflicto a nivel regional. Uno de los reclutados era Billy, sin embargo las tensiones entre los grupos se intensifican cuando Tunstall es asesinado por gente contratada por Murphy. Billy (Estévez), Doc (Sutherland), Chávez (Phillips), Dick (Sheen), Dirty Steve (Mulroney) y Charlie (Siemaszko) piden consejo a su abogado y amigo Alex quien se las arregla para darles el poder de arrestar a los asesinos contratados por Murphy.
Billy rápidamente desafía la autoridad de Dick como líder del grupo, jurando venganza contra Murphy y los responsables por la muerte de Tunstall. Los hombres se llaman a sí mismos "Los reguladores" y comenzaron a matar a la mayoría de los hombres que tenían como objetivo arrestar, muchos de ellos por el mismo Billy. "Los reguladores" pierden su autoridad policial, enterándose por medio de un periódico. El mismo periódico confunde a Dick por Billy, mostrando una foto de Dick con el lema "Billy The Kid", un sobrenombre al cual Billy le toma un gusto enorme. Mientras las autoridades locales comenzaron la búsqueda de Billy y los "Reguladores", estos deciden terminar la lista de arrestos que se les dio. El último es arrinconado en una casa de campo comenzando un tiroteo muy intenso que termina con la muerte de Dick. Es entonces cuando Billy se designa a sí mismo como el nuevo líder del grupo. La banda se vuelve famosa y el ejército de Estados Unidos se une.
"Los Reguladores" eluden a los buscadores por un tiempo pero son acorralados mientras están en la casa de su amigo Alex en la calle principal de Lincoln, Nuevo México. El tiroteo comienza cuando las autoridades entran en la casa. Un alto el fuego se produce durante la noche, pero la pelea continúa la mañana siguiente cuando el ejército, acompañado por Murphy, llega. Prenden fuego a la casa mientras Chávez se escabulle por la parte trasera de la casa, pareciendo desertar de la banda. Cuando la casa comienza a quemarse, los hombres salen con un plan de escape. Comienzan tirando las posesiones de Alex por las ventanas del segundo piso. Billy se coloca dentro de un gran baúl, y cuando aterriza fuera, toma a sus oponentes por sorpresa saliendo y abriendo fuego inmediatamente.
Casi al mismo tiempo, Doc toma el camino de las escaleras que llevaba al exterior, descargando su artillería. Es seguido por Charlie y Steve. Cuando todos llegan al frente, Billy recibe dos disparos en sus brazos. Charlie reta al cazarecompensas John Kinney, con un fuego cruzado y ambos mueren. Chávez toma al ejército por sorpresa, pues llega montando un caballo y trayendo dos más con él. Entra por atrás y salta por la barricada para dárselos a "Los reguladores" supervivientes. Billy monta en uno, mientras Doc toma el otro. En ese momento una bala impacta a Doc mientras su novia grita y va por ella, escapando rápidamente. Chávez trata de subir a Steve en el caballo, pero es herido y cae al suelo. Steve lo ayuda a montar de nuevo y manda al caballo a correr quedándose sin armas y sin medio de escape. Recibe múltiples balas y cae muerto en un charco sucio. Alex alienta a los muchachos mientras escapan pero el ejército le dispara con una ametralladora y muere. Murphy entonces comienza a gritar que persiguieran a "Los reguladores", sin embargo, Billy regresa por un momento para decirle a Murphy "Coséchalo Murphy, hijo de perra" y para meterle una bala entre los ojos.
La escena final es la voz de Doc como fondo explicando que pasó con "Los Reguladores" supervivientes. Diciendo que Chávez encontró trabajo en una granja en California; que Doc se fue al este, a Nueva York, y se casó con la chica china que salvó de Murphy; y que Billy continuó cabalgando hasta que fue muerto por Patrick Garret, y que fue enterrado junto a Charlie Bowdre en el Fuerte Sumner, donde su lápida fue visitada por un extraño en la noche que talló un epitafio en la piedra que decía: "Amigos".

capturas



formato


General
Complete name                         Young_Guns_1988_BluRay_720p.avi
Format                                   : AVI
Format/Info                              : Audio Video Interleave
Format profile                           : OpenDML
File size                                : 2.56 GiB
Duration                                 : 1h 46mn
Overall bit rate                         : 3 438 Kbps
Writing application                      : MEncoder VERSION
Writing library                          : MPlayer

Video
ID                                       : 0
Format                                   : MPEG-4 Visual
Format profile                           : Advanced [email protected]
Format settings, BVOP                    : 3
Format settings, QPel                    : No
Format settings, GMC                     : No warppoints
Format settings, Matrix                  : Default (H.263)
Codec ID                                 : XVID
Codec ID/Hint                            : XviD
Duration                                 : 1h 46mn
Bit rate                                 : 3 299 Kbps
Width                                    : 1 280 pixels
Height                                   : 720 pixels
Display aspect ratio                     : 16:9
Frame rate                               : 23.976 fps
Color space                              : YUV
Chroma subsampling                       : 4:2:0
Bit depth                                : 8 bits
Scan type                                : Progressive
Compression mode                         : Lossy
Bits/(Pixel*Frame)                       : 0.149
Stream size                              : 2.46 GiB (96%)
Writing library                          : XviD 1.2.1 (UTC 2008-12-04)

Audio
ID                                       : 1
Format                                   : MPEG Audio
Format version                           : Version 1
Format profile                           : Layer 3
Mode                                     : Joint stereo
Mode extension                           : MS Stereo
Codec ID                                 : 55
Codec ID/Hint                            : MP3
Duration                                 : 1h 46mn
Bit rate mode                            : Constant
Bit rate                                 : 128 Kbps
Channel(s)                               : 2 channels
Sampling rate                            : 44.1 KHz
Compression mode                         : Lossy
Delay relative to video                  : 42ms
Stream size                              : 97.7 MiB (4%)
Alignment                                : Aligned on interleaves
Interleave, duration                     : 26 ms (0.63 video frame)
Interleave, preload duration             : 522 ms


descarga

billionuploads




contraseña 

tomy
Jovenes Pistoleros Young Guns 1988 BrRiplatino720p
7 Puntos Score: 3.5/10
Visitas: 3155 Favoritos: 5
Ver los usuarios que votaron...
5 Comentarios Jovenes Pistoleros Young Guns 1988 BrRiplatino720p
bueno soy el primero en comentar exelente pelicula me pregunto si subiras,la parte 2 y si por fa las tienes en audio dual me gusta el sonido original, espero de antemano gracias ojala las tengas audio dual
muy bueno aporte.. muchas gracias    
buen aporte , exelente, pero.....     esa basura de servidor ya no descargas como antes, te limitan mucho las descargas. solo 5 por el servidor  
@klaudio2 si derrepente funciona bien y otras veces no,con my pony solo deja descargar un archivo a la vez, pero si descargas por la web puedes descargar 3 archivos simultaniamente, eso yo no lo sabia  
Para dejar un comentario Registrate! o.. eres ya usuario? Accede!