Oops.. Este post tiene los enlaces eliminados!

Identi revisa las denuncias de los usuarios en busca de enlaces eliminados que no dejan descargar los archivos, este mensaje te informa que este post que estas viendo tiene los enlaces eliminados.

Usa el Buscador

Por favor, te recomendamos que uses el buscador para encontrar más alternativas.

Iron Man 3 - 2013 (R6 Xvid incluye escena final

  • Categoría: Reciclaje
  • Publicado hace más de 3 años


IDIOMA: Ingles CON SUBTITULOS !
Links sin pass
totalmente continuables con el JDownloader
PELI INCLUYE ESCENA OCULTA POST-CREDITOS !!

Video
ID : 0
Format : MPEG-4 Visual
Format profile : Advanced [email protected]
Format settings, BVOP : 2
Format settings, QPel : No
Format settings, GMC : No warppoints
Format settings, Matrix : Default (MPEG)
Muxing mode : Packed bitstream
Codec ID : XVID
Codec ID/Hint : XviD
Duration : 2h 8mn
Bit rate : 1 810 Kbps
Width : 720 pixels
Height : 304 pixels
Display aspect ratio : 2.35:1
Frame rate : 29.970 fps
Color space : YUV
Chroma subsampling : 4:2:0
Bit depth : 8 bits
Scan type : Progressive
Compression mode : Lossy
Bits/(Pixel*Frame) : 0.276
Stream size : 1.63 GiB (93%)
Writing library : XviD 64

Audio
ID : 1
Format : MPEG Audio
Format version : Version 1
Format profile : Layer 3
Mode : Joint stereo
Mode extension : MS Stereo
Codec ID : 55
Codec ID/Hint : MP3
Duration : 2h 8mn
Bit rate mode : Constant
Bit rate : 128 Kbps
Channel(s) : 2 channels
Sampling rate : 48.0 KHz
Compression mode : Lossy
Delay relative to video : 10ms
Stream size : 118 MiB (7%)
Alignment : Split accross interleaves
Interleave, duration : 33 ms (1.00 video frame)
Interleave, preload duration : 500 ms






http://ul.to/sitsrsdp
http://www.putlocker.com/file/669B69F3C32C476B
http://www.putlocker.com/file/06D6D51A2413BA02
http://www.putlocker.com/file/355D14EA3961CFE3
http://www.putlocker.com/file/4A0FFB5443AA1072

Subtitulo perfectamente sincronizadoo:
http://www.subdivx.com/X6XMzMwNjQ4X-iron-man-3.html
Iron Man 3 - 2013 (R6 Xvid incluye escena final
35 Puntos Score: 8.8/10
Visitas: 1744 Favoritos: 4
Ver los usuarios que votaron...
Más del Autor...
No se encontraron más posts
22 Comentarios Iron Man 3 - 2013 (R6 Xvid incluye escena final
en que idioma esta?
@motoakza ingles, esta descripto en la nfo, ahi lo pongo en negrita
el primero es necesario??es de ul....y tiene sub?
Lastima que aun no existan subtitulos para esta version, de igual manera buen post  
no tiene los subtitulos?
Chee que no saben leer ?   INGLES CON SUBTITULOS EN GRANDOTE DICE ARRIBA !   GRAX KPO DESCARGANDO SI LO PODES SUBIR A ZIPP O MEGA SERIA GENIAL
@tuby @Ezewgamers @ramen ahi actualice el subtitulo esta perfectamente sincronizado
y si el link primero es el de ul...to por q ahi estoy subiendolo todavia a putlocker y m esta tardando asi q lo largo en este servidor hasta q lo puedo lanzar en putloker cualqr cosa me avisan un abrazo y gracias x comentar
estos R6... me pasaron por ahi otro R6 que no valio la pena....mejor me espero!!!
las capturas son reales que alguien que la descargo comente
los subs dicen otra cosa, como que no son para esta version, los probaste?  
@remaker @Primus son reales t lo juro es la misma calidad que se ve en las fotos, la calidad de mis aportes intento acerlas en super hd sino mira mis otros aportes
un abrazo
descargando ............. si se ve como las capturas, van +10  
@jorpalkoh SI, es la version READ NFO
+ 10 ... exelente aporte amigo !!!
@neto_fm_1 dale gracias x confiar el que gana eres tu

@tuby  gracias, y gracias por comentar !
a bajar para ver, saludos.
Amigo @holayo podras subir el primer enlace en otro servidor ya que se cae mucho.

Saludos. @holayo
@holayo confio en tu palabra de las capturas+ 10
@Primus gracias x confiar hermano, el q gana eres tu
@tehuitzil la parte uno es la unica q aun no logro subir a putlocker perdoname
Se ve que esta aceptable la imagen, gracias.
Este post esta cerrado y no se permiten comentarios.
Para dejar un comentario Registrate! o.. eres ya usuario? Accede!