Cliffhanger - Riesgo Total |1080p|EN|Mega|Wolf|



Hola Identikeros...

En esta ocasión les traigo Cliffhanger, una película de Sylvester Stallone, conocida como Riesgo Total en español, hecha en 1993, es una película clásica de acción, que tiene todo lo necesario para entretenernos por mas de una hora...

Está en calidad Full HD 1080p, con audio en Inglés y subtitulos en archivo .SRT incluidos en el .ZIP, sin mas que decir, pasen, descarguen, comenten, disfruten y punteen...




Cliffhanger - Riesgo Total
|1080p|Inglés|Subtitulada|Mega|











Ficha técnica

Título: Cliffhanger, Riesgo Total (América Latina), Máximo Riesgo (España)
Dirección: Renny Harlin
Dirección artística: John Vallone
Música: Trevor Jones
Fotografía: Alex Thomson
Montaje: Frank J. Urioste
Vestuario: Ellen Mirojnick
Protagonistas: Sylvester Stallone, John Lithgow, Michael Rooker

Datos y cifras

País: Estados Unidos
Año: 1993
Duración: 113 minutos
Clasificación:  M
Distribución: TriStar Pictures
Presupuesto: US$65,000,000

Recaudación: >US$250.000.000

Sinopsis

A un experimentado alpinista de un equipo de salvamento (Stallone) la muerte de una persona durante un rescate le produce una depresión tan profunda que decide retirarse. Pero el accidente de un avión, secuestrado por una banda criminal, en plena montaña le obligará a realizar la misión más difícil y peligrosa de su vida.

Detalles del archivo

General

Complete name                            : MO-C-REGNAHFFILC[1080d][EN][Wolf].mp4
Format                                   : MPEG-4
File size                                : 1.65 GB
Duration                                 : 1h 53mn

Vídeo

Format                                   : AVC
Format/Info                              : Advanced Video Codec
Duration                                 : 1h 53mn
Width                                    : 1 920 pixels
Height                                   : 800 pixels
Stream size                              : 1.57 GiB (95%)
Writing library                          : x264 core

Audio

Format                                   : AAC
Format/Info                              : Advanced Audio Codec
Duration                                 : 1h 53mn
Channel(s)                               : 2 channels
Channel positions                        : Front: L R
Stream size                              : 77.4 MiB (5%)


Datos de la descarga

- Formato de la Descarga: .__a
- Contenedor del Archivo: .ZIP
- Nombre de la Película: Cliffhanger - Riesgo Total
- Nombre del Archivo: MO-C-REGNAHFFILC[1080d][EN][Wolf].mp4
- Formato: .MP4
- Tamaño: 1.65 GB
- Duración : 1h 53m
- Ancho del Vídeo: 1.920 pixeles
- Alto del Vídeo: 800 pixeles
- Audio : Sencillo
- Idioma: Ingles
- Subtitulos: Archivo .SRT incluido en el .ZIP










Instrucciones

1. Descargar los archivos y guardar en una carpeta a conveniencia, unir las partes con File Spliter & Joiner (v3.3). No se asusten si no reconocen el formato .001, el formato .__A es es mismo solo que encriptado. (HJSplit y 7Zip pueden funcionar en algunos casos, pero no es recomendado).

2. El resultado será un archivo .ZIP, descomprimir el archivo y listo, tendrán el vídeo y algunas imágenes.

- Nota: En total son: 2 partes (1 de 001.00 GB; 1 de 734.50 MB).

- MD5 Signature .MP4: 1C87D744 - 4DC72615 - 5EB4AB44 - 9F6E9205

- MD5 Signature .ZIP: 12B2B872 - 5C05FD0E - C4AD4EA5 - 05D07582







identi.li/wolf


Cliffhanger - Riesgo Total |1080p|EN|Mega|Wolf|
20 Puntos Score: 10/10
Visitas: 5131 Favoritos: 5
Ver los usuarios que votaron...
18 Comentarios Cliffhanger - Riesgo Total |1080p|EN|Mega|Wolf|
en latinoooo please
@kochkoch No la tengo en latino hermano, sorry...
esta peli es buena yo la tenia para verla en vhs lastima q no la tienes en latino se agradece de todos modos
medio atoa con la extencion, aun no puedo unirlas
no, me doy por vencido, tiempo perdido  
@klaudio2 Brother compara el MD5 del archivo .ZIP con el MD5 que dej?
TENDRIAS LOS LINKS SUELTOS EL JDOWLOADER NO ME LOS TOMA TENGO EL BLACK EDITION, GRACIAS
Amigo.... por casualidad tienes CONDENA BRUTAL ( LOCK UP) de Stallone ( 1989) en esta calidad o en 720p,, no la he encontrado en ninguna parte,,,,,, te lo agradeceria y si tengo te doy mis puntos!!!!!( sin jdownloader please )
@rocktra Nah hermano, no la tengo, y con el internet que tengo ahorita ni me animo a buscarla por ahora, pero si me la consigo por ah?
bajandooooooooooooo  
no me toma el pass identi.li/wolf para unir los archivos. cual es?
No los pude unir amigo me marca error al descomprimir!!  
Cita kochkoch: Mostrar
quieres los supttitulos de  esta pelicula  yo los tengo  y se donde bajar   casi todos los suptitulos como mas de  10 diferentes idiomas
Gracias por compartir!!!
tambien batalle con la union, me di por vencido, no pude
Para dejar un comentario Registrate! o.. eres ya usuario? Accede!