Oops.. Este post tiene los enlaces eliminados!

Identi revisa las denuncias de los usuarios en busca de enlaces eliminados que no dejan descargar los archivos, este mensaje te informa que este post que estas viendo tiene los enlaces eliminados.

Usa el Buscador

Por favor, te recomendamos que uses el buscador para encontrar más alternativas.

Gone in 60 Seconds|1080p|EN|Mega|Wolf

  • Categoría: Reciclaje
  • Publicado hace más de 3 años


Bienvenidos Identikeros...

Hoy les traigo una de las mejores películas de Nicholas Cage que he visto en mi vida, Gone in 60 Seconds, conocida mas comúnmente como 60 Segundos, autos de gama alta, lujo, acción, y mas, mucho mas...

Está en calidad Full HD 1080p, con audio en Inglés y subtitulos en archivo .SRT incluidos en el .ZIP, sin mas que decir, pasen, descarguen, comenten, disfruten y punteen...




Gone in 60 Seconds - 60 Segundos
1080p|Inglés|Mega











Ficha técnica

País: Estados Unidos
Director: Dominic Sena
Guión: Scott Rosenberg
Música: Trevor Rabin
Fotografía: Paul Cameron
Reparto: Nicolas Cage, Angelina Jolie, Robert Duvall, Giovanni Ribisi, Delroy Lindo, Will Patton, Christopher Eccleston, Chi McBride, Vinnie Jones, Grace Zabriskie, Bodhi Elfman, Arye Gross, Carmen Argenziano, John Carroll Lynch, Master P
Productora: Touchstone Pictures / Jerry Bruckheimer Films
Género: Acción,Robos & Atracos, Coches, Automovilismo, Remake


Datos y cifras

País(es): Estados Unidos
Año 2000
Idioma(s): Inglés

Presupuesto: $90 million
Recaudación: $237,202,298


Sinopsis

Hace ya tiempo que Randall "Memphis" Raines ha dejado atrás su pasado delictivo. Pero cuando se entera de que su hermano está en peligro, para salvarlo se ve obligado a hacer lo que mejor sabe hacer: robar coches: 50 coches y un contrato. Fanático del automovilismo, Memphis es una leyenda en el negocio de robo de coches. No se le resiste ninguna cerradura, ninguna alarma.

Detalles del archivo

General

Complete name                            : MO-G-SDNOCES06NIENOG[1080d][EN][Wolf].mp4
Format                                   : MPEG-4
File size                                : 1.60 GB
Duration                                 : 1h 57mn

Vídeo

Format                                   : AVC
Format/Info                              : Advanced Video Codec
Duration                                 : 1h 57mn
Width                                    : 1 920 pixels
Height                                   : 816 pixels
Stream size                              : 1.52 GiB (95%)
Writing library                          : x264 core

Audio

Format                                   : AAC
Format/Info                              : Advanced Audio Codec
Duration                                 : 1h 57mn
Channel(s)                               : 2 channels
Channel positions                        : Front: L R
Stream size                              : 77.6 MiB (5%)


Datos de la descarga

- Formato de la Descarga: .__a
- Contenedor del Archivo: .ZIP
- Nombre de la Película: Gone in 60 Seconds - 60 Segundos
- Nombre del Archivo: MO-G-SDNOCES06NIENOG[1080d][EN][Wolf].mp4
- Formato: .MP4
- Tamaño: 1.60 GB
- Duración : 1h 57m
- Ancho del Vídeo: 1.920 pixeles
- Alto del Vídeo: 816 pixeles
- Audio : Sencillo
- Idioma: Ingles
- Subtitulos: Archivo .SRT incluido en el .ZIP










Instrucciones

1. Descargar los archivos y guardar en una carpeta a conveniencia, unir las partes con File Spliter & Joiner (v3.3). No se asusten si no reconocen el formato .001, el formato .__A es es mismo solo que encriptado. (HJSplit y 7Zip pueden funcionar en algunos casos, pero no es recomendado).

2. El resultado será un archivo .ZIP, descomprimir el archivo y listo, tendrán el vídeo y algunas imágenes.

- Nota: En total son: 2 partes (1 de 001.00 GB; 1 de 612.70 MB).

- MD5 Signature .MP4: 871AA91E - 9522CF71 - DE6382B0 - 31F424E5

- MD5 Signature .ZIP: 17D7671D - 9A2B88AB - BB846AAB - 13656B1F







identi.li/wolf


Gone in 60 Seconds|1080p|EN|Mega|Wolf
0 Puntos Score: 0/10
Visitas: 3497 Favoritos: 2
9 Comentarios Gone in 60 Seconds|1080p|EN|Mega|Wolf
gracias por la peli !!!!!!!!!!!!!!!!!!!!!!!!!!!  
gracias amigo,,,lo estaba esperando,,
Descargando y agradeciendo.
Me pide pass al unirlos  
Gracias por la peli muy buena mas con este tipo de personaje  
Sabes  disculpa  pero me pide pass para unirlo  
hola sabes para descomprimir el zip me pide un pass..
no esta en latino solo audio en ingles  
Para dejar un comentario Registrate! o.. eres ya usuario? Accede!