Iron Man 3 2013 R6 [EN] [CAM audio]

Iron Man 3 2013 R6 [EN] [CAM audio]














Título: Iron Man 3
Título original: Iron Man 3
País: USA
Estreno en USA: 03/05/2013
Estreno en España: 26/04/2013
Productora: Paramount Pictures
Director: Shane Black
Guión: Drew Pearce, Shane Black 
Reparto: Robert Downey Jr., Don Cheadle, Gwyneth Paltrow, Guy Pearce, Cobie Smulders, Ben Kingsley, Paul Bettany, Rebecca Hall, Jon Favreau, Stan Lee, William Sadler, Justin Wheelon, James Badge Dale, Stephanie Szostak, Yvonne Zima
Calificación: No recomendada para menores de 12 años

Sinopsis:

En "Iron Man 3" de Marvel, el descarado pero brillante empresario Tony Stark/Iron Man se enfrentará a un enemigo cuyo poder no conoce límites. Cuando Stark comprende que su enemigo ha destruido su universo personal, se embarca en una angustiosa búsqueda para encontrar a los responsables. Este viaje pondrá a prueba su entereza una y otra vez. Acorralado, Stark tendrá que sobrevivir por sus propios medios, confiando en su ingenio y su instinto para proteger a las personas que quiere. Durante su lucha, Stark conocerá la respuesta a la pregunta que le atormenta en secreto: ¿El hábito hace al monje o es al contrario?

Protagonizada por Robert Downey Jr., Gwyneth Paltrow, Don Cheadle, Guy Pearce, Rebecca Hall, Stephanie Szostak, James Badge Dale con Jon Favreau y Ben Kingsley, ?Iron Man 3? está dirigida por Shane Black a partir de un guión adaptado de Drew Pearce y Shane Black y está basada en Iron Man, el emblemático Superhéroe de Marvel. Iron Man apareció por primera vez en las páginas de ?Tales of Suspense? (nº39) en 1963 y en mayo de 1968 se publicó el primer cómic dedicado a él y titulado "El Invencible Iron Man" (nº1).

Marvel Studios en asociación con Paramount Pictures y DMG Entertainment presenta ?Iron Man 3?. Kevin Feige, Presidente de Marvel Studios es el productor y Jon Favreau, Louis D'Esposito, Stephen Broussard, Victoria Alonso, Alan Fine, Charles Newirth, Stan Lee y Dan Mintz son los productores ejecutivos. La película llegará a los cines en abril de 2013 y está distribuida por Walt Disney Studios Motion Pictures.


Idioma: : Ingles

Format                                   : AVI
Format/Info                              : Audio Video Interleave
File size                                : 1.45 GiB
Duration                                 : 2h 13mn
Overall bit rate                         : 1 553 Kbps
Writing application                      : Lavf51.12.1
Writing library                          : VirtualDub build 32842/release

Video
ID                                       : 0
Format                                   : AVC
Format/Info                              : Advanced Video Codec
Format profile                           : [email protected]
Format settings, CABAC                   : No
Format settings, ReFrames                : 1 frame
Format settings, GOP                     : M=1, N=12
Codec ID                                 : H264
Duration                                 : 2h 13mn
Bit rate                                 : 1 349 Kbps
Width                                    : 1 280 pixels
Height                                   : 720 pixels
Display aspect ratio                     : 16:9
Frame rate mode                          : Variable
Frame rate                               : 29.970 fps
Color space                              : YUV
Chroma subsampling                       : 4:2:0
Bit depth                                : 8 bits
Scan type                                : Progressive
Bits/(Pixel*Frame)                       : 0.049
Stream size                              : 1.26 GiB (87%)

Audio
ID                                       : 1
Format                                   : AC-3
Format/Info                              : Audio Coding 3
Mode extension                           : CM (complete main)
Format settings, Endianness              : Big
Codec ID                                 : 2000
Duration                                 : 2h 13mn
Bit rate mode                            : Constant
Bit rate                                 : 192 Kbps
Channel(s)                               : 2 channels
Channel positions                        : Front: L R
Sampling rate                            : 48.0 KHz
Bit depth                                : 16 bits
Compression mode                         : Lossy
Stream size                              : 183 MiB (12%)
Alignment                                : Split accross interleaves
Interleave, duration                     : 33 ms (1.00 video frame)
Interleave, preload duration             : 500 ms















Enlaces De Descarga


Subtitulos Pendientes aún, muy nuevo el aporte


Iron Man 3 2013 R6 [EN] [CAM audio]
10 Puntos Score: 10/10
Visitas: 2580 Favoritos: 2
Ver los usuarios que votaron...
19 Comentarios Iron Man 3 2013 R6 [EN] [CAM audio]
esas capturas se vn  buenas si esta asi sos el capo gracias si tubiera puntos te daria ya los tendre ajajajajja  
@erne.diaz man las capturas son reales, la cagada es el audio pero algo se disfruta  
Gracias!! un Excelente APORTEEE!!!   ahora a esperar los Sub  
interesante aporte, gracias
esperando en 1080p 20gb
Cita messioli: Mostrar
@agamboat puedes ponerlo en mega??
Cita DAMIAN32: Mostrar
Debo decir que se ve bien, el audio no es el mejor, pero la imagen es de las mejores por el momento...
A MUXEAR EL AUDIO LATINO
buenas ,aca les dejo unos sub ,no los prob?
disculpa, tiene subs en chino pegados? o solo es el logo que se ve en la esquina?
no es R6 es un HDTS, pero igual gracias por al subida
espero y la subas .avi o esas pelis que se ven bien y que no pesan mas que 800 o 700 mb
Esta ya salio asi, sin el sello chino y en latino hace 3 dias.

Igual no la baje aqui en identi, lol
bien!!! es la version que presentaron en China!!! Incluye las escenas que no se vieron e Occidente. Seria genial que se consiguieran los subtitulos de esta version! Excelente calidad para ser estreno. Gracias
Cita messioli: Mostrar
Para dejar un comentario Registrate! o.. eres ya usuario? Accede!