House party 1990 fiesta en casa subtitulos español


TÍTULO ORIGINAL House Party
AÑO 
1990 
DURACIÓN 
100 min. 
PAÍS 
[Estados Unidos] 
DIRECTOR Reginald Hudlin
GUIÓN Reginald Hudlin
MÚSICA Marcus Miller
FOTOGRAFÍA 
REPARTO Christopher Reid, Robin Harris, Christopher Martin, Martin Lawrence, A.J. Johnson, Paul Anthony, Kelly Jo Minter, Clifton Powell
PRODUCTORA New Line Cinema
PREMIOS 1990: Sundance: Trofeo Cineastas, Mejor fotografía
GÉNERO Comedia | Comedia juvenil. Hip Hop. Cine independiente USA
ARGUMENTO
Play dará una fiesta en su casa por la noche. Todo el mundo estará pero, tras una pelea en clase, Kid es castigado y no le permiten ir. Por la noche se escabullirá de casa para ir a la fiesta, pero el castigo no será a lo único que se enfrentará en esta noche muy, muy larga... 



CAPTURAS


FORMATO AVI SUBTITULOS EN EL RAR FORMATO SRT


Format                         : AVI
Format/Info                    : Audio Video Interleave
File size                      : 700 MiB
Duration                       : 1h 44mn
Overall bit rate               : 940 Kbps
Writing application            : VirtualDubMod 1.5.4.1 (build 2178/release)
Writing library                : VirtualDubMod build 2178/release

Video
ID                             : 0
Format                         : MPEG-4 Visual
Format profile                 : Advanced [email protected]
Format settings, BVOP          : 1
Format settings, QPel          : No
Format settings, GMC           : No warppoints
Format settings, Matrix        : Custom
Codec ID                       : XVID
Codec ID/Hint                  : XviD
Duration                       : 1h 44mn
Bit rate                       : 773 Kbps
Width                          : 560 pixels
Height                         : 304 pixels
Display aspect ratio           : 1.85:1
Frame rate                     : 23.976 fps
Color space                    : YUV
Chroma subsampling             : 4:2:0
Bit depth                      : 8 bits
Scan type                      : Progressive
Compression mode               : Lossy
Bits/(Pixel*Frame)             : 0.189
Stream size                    : 576 MiB (82%)
Writing library                : XviD 1.0.2 (UTC 2004-08-29)

Audio
ID                             : 1
Format                         : MPEG Audio
Format version                 : Version 1
Format profile                 : Layer 3
Mode                           : Joint stereo
Mode extension                 : MS Stereo
Codec ID                       : 55
Codec ID/Hint                  : MP3
Duration                       : 1h 44mn
Bit rate mode                  : Constant
Bit rate                       : 160 Kbps
Channel(s)                     : 2 channels
Sampling rate                  : 48.0 KHz
Compression mode               : Lossy
Stream size                    : 119 MiB (17%)
Alignment                      : Aligned on interleaves
Interleave, duration           : 83 ms (2.00 video frames)
Interleave, preload duration   : 504 ms



ZIPPYSHARE


BILLIONUPLOADS
House party 1990 fiesta en casa subtitulos español
0 Puntos Score: 0/10
Visitas: 2969 Favoritos: 1
2 Comentarios House party 1990 fiesta en casa subtitulos español
wow tremenda peli tienes la 2da parte?
@gonz298 no no la tengo pero si la consigo la subo
Para dejar un comentario Registrate! o.. eres ya usuario? Accede!