Drumline|1080p|EN|Mega|Wolf



Bienvenidos Identikeros...

Aquí les traigo una película con mucho ritmo, Drumline, quizás muchos la han visto, y los que no, véanla, es muy buena, ritmos y música de la buena con un buen guion...

En calidad Full HD 1080p, con audio en Inglés y los subtitulos en un archivo .SRT incluido en el archivo .ZIP...




Drumline
1080p|Inglés|Subtitulada|Mega











Ficha técnica

Dirección: Charles Stone III
Producción: Dallas Austin, Timothy M. Bourne, Wendy Finerman, Jody Gerson, Greg Mooradian
Música: John Powell
Fotografía: Shane Hurlbut
Montaje: Patricia Bowers, Bill Pankow
Protagonistas: Nick Cannon, Zoe Saldana, Orlando Jones, Leonard Roberts, Jason Weaver,
Candace Carey

Datos y cifras

País(es): Estados Unidos
Año: 2002
Duración: 118 min.
Idioma(s): Inglés
Distribución: 20th Century Fox
Presupuesto: $20 millones
Recaudación: $57,588,485


Sinopsis

Un joven batería de hip-hop de Harlem, Nueva York, recibe una beca para ir a la Universidad de Atlanta, conocida por su banda de música que anima los descansos de los partidos. Pero su estilo chocará con el método tradicional del director de la banda y su actitud choca con la líder de la sección de batería de la escuela. Su cabezoneria casi le cuesta la beca.

Detalles del archivo

General

Complete name                            : MO-D-ENILMURD[1080d][EN][Wolf].mp4
Format                                   : MPEG-4
File size                                : 1.65 GB
Duration                                 : 2h 2mn

Vídeo

Format                                   : AVC
Format/Info                              : Advanced Video Codec
Duration                                 : 2h 2mn
Width                                    : 1 920 pixels
Height                                   : 816 pixels
Stream size                              : 1.57 GiB (95%)
Writing library                          : x264 core

Audio

Format                                   : AAC
Format/Info                              : Advanced Audio Codec
Duration                                 : 2h 2mn
Channel(s)                               : 2 channels
Channel positions                        : Front: L R
Stream size                              : 84.0 MiB (5%)
Language                                 : English


Datos de la descarga

- Formato de la Descarga: .__a
- Contenedor del Archivo: .ZIP
- Nombre de la Película: Drumline
- Nombre del Archivo: MO-D-ENILMURD[1080d][EN][Wolf].mp4
- Formato: .MP4
- Tamaño: 1.65 GB
- Duración : 2h 2m
- Ancho del Vídeo: 1.920 pixeles
- Alto del Vídeo: 816 pixeles
- Audio : Sencillo
- Idioma: Ingles
- Subtitulos: Archivo .SRT incluido en el .ZIP












Instrucciones

1. Descargar los archivos y guardar en una carpeta a conveniencia, unir las partes con File Spliter & Joiner (v3.3). No se asusten si no reconocen el formato .001, el formato .__A es es mismo solo que encriptado. (HJSplit y 7Zip pueden funcionar en algunos casos, pero no es recomendado).

2. El resultado será un archivo .ZIP, decomprimir el archivo y listo, tendrán el vídeo o un archivo con extensión .DAT o sin extensión y algunas imágenes.

3. Como método de seguridad personal yo elimino la extensión .MP4 del vídeo y la sustituyo con una extensión .DAT, al descomprimir el archivo .ZIP como resultado verán un archivo con extensión .DAT, entre otras cosas, este archivo es el vídeo, cambiar la extensión y colocar .MP4.

- Nota: En total son: 2 partes (1 de 001.00 GB; 1 de 666.00 MB).

- MD5 Signature .MP4: 52B3BA26 - 4BE43A86 - A5FC58A4 - A12A04C4

- MD5 Signature .ZIP: 083EC8E1 - 5C7814ED - E3AC6724 - 7E8C977F







identi.li/wolf


Drumline|1080p|EN|Mega|Wolf
25 Puntos Score: 8.3/10
Visitas: 7323 Favoritos: 5
Ver los usuarios que votaron...
10 Comentarios Drumline|1080p|EN|Mega|Wolf
me encantan este tipo de peliculas MIL GRACIAS  
buena la peli lastima que no esta en latino gracias  
Muchas gracias, mui buen aporte!  
Amigo , sabes donde puedo conseguir el audio latino para este ap?
@todocad brother no tengo ni idea, las versiones que yo he conseguido antes han sido en espa?
Se agradece el aportazo tremenda pelicula la super recomiendo es excelente para todos  
no pedes poner los link de mega directo en lgar de Jdown...??  porfavor!! ^^
Para dejar un comentario Registrate! o.. eres ya usuario? Accede!