Death of a Superhero|1080p|EN|Mega|Wolf



Bienvenidos otra vez Identikeros...

En esta ocasión les traigo una película que aún no he visto, pero que se ve buena a pesar de ser de drama, o eso me parece, Death of a Superhero, o Muerte de un Superheroe, es una película que narra la historia de un chico con una enfermedad terminal, y su particular habilidad de dibujar comics.

Es calidad Full HD 1080p, con audio en Inglés y los subtitulos en un archivo .SRT incluidos en el archivo .ZIP




Death of a Superhero | Muerte de un Superheroe
1080p|Inglés|Subtitulado|Mega











Ficha técnica

Título original: Death of a Superhero
Año: 2011
Duración: 97 min.
País:  Irlanda
Director: Ian FitzGibbon
Guión: Anthony McCarten (Novela: Anthony McCarten)
Música: Marius Ruhland
Fotografía: Tom Fährmann
Reparto: Andy Serkis, Thomas Brodie-Sangster, Michael McElhatton, Sharon Horgan, Ned Dennehy
Productora: Coproducción Irlanda-Alemania; Bavaria Pictures / FilmFernsehFonds Bayern / Filmförderungsanstalt (FFA)
Género: Drama, Enfermedad, Cómic, Adolescencia


Sinopsis

Donald es un joven de quince años enfermo de cáncer. Desde pequeño ha estado visitando hospitales, salas de urgencia y consultas de especialistas, mientras su cuerpo era sometido a mil y un experimentos, los cuales poco han podido hacer para remedir su situación. Su vida, al revés que las de sus compañeros de clase, significa estar atrapado en una continua y dolorosa pesadilla, de la cual no hay vía posible de escape. Los únicos momentos en los que Donald logra olvidar su existencia los consigue gracias a sumergirse en sus oscuros, pero balsámicos dibujos, instantes en los que el joven deja de ser una víctima y se convierte en un superviviente. Sus historias gráficas, las cuales transcurren como una suerte de serie animada en su mente, están plagadas de enfermeras sexis, pero sádicas, dementes doctores y hospitales exportados de una antesala del infierno.

Detalles del archivo

General

Complete name                            : MO-D-OREHREPUSAFOHTAED[1080p][EN][Wolf].mp4
Format                                   : MPEG-4
File size                                : 1.40 GB
Duration                                 : 1h 36mn

Vídeo

Format                                   : AVC
Format/Info                              : Advanced Video Codec
Duration                                 : 1h 36mn
Width                                    : 1 920 pixels
Height                                   : 1 040 pixels
Stream size                              : 1.33 GiB (95%)
Writing library                          : x264 core

Audio

Format                                   : AAC
Format/Info                              : Advanced Audio Codec
Duration                                 : 1h 36mn
Channel(s)                               : 2 channels
Channel positions                        : Front: L R
Stream size                              : 66.4 MiB (5%)
Language                                 : English


Datos de la descarga

- Formato de la Descarga: .__a
- Contenedor del Archivo: .ZIP
- Nombre de la Película: Death of a Superhero - Muerte de un Superheroe
- Nombre del Archivo: MO-D-OREHREPUSAFOHTAED[1080p][EN][Wolf].mp4
- Formato: .MP4
- Tamaño: 1.40 GB
- Duración : 1h 36m
- Ancho del Vídeo: 1.920 pixeles
- Alto del Vídeo: 1040 pixeles
- Audio : Sencillo
- Idioma: Ingles
- Subtitulos: Archivo .SRT incluido en el .ZIP












Instrucciones

1. Descargar los archivos y guardar en una carpeta a conveniencia, unir las partes con File Spliter & Joiner (v3.3). No se asusten si no reconocen el formato .001, el formato .__A es es mismo solo que encriptado. (HJSplit y 7Zip pueden funcionar en algunos casos, pero no es recomendado).

2. El resultado será un archivo .ZIP, decomprimir el archivo y listo, tendrán el vídeo o un archivo con extensión .DAT o sin extensión y algunas imágenes.

3. Como método de seguridad personal yo elimino la extensión .MP4 del vídeo y la sustituyo con una extensión .DAT, al descomprimir el archivo .ZIP como resultado verán un archivo con extensión .DAT, entre otras cosas, este archivo es el vídeo, cambiar la extensión y colocar .MP4.

- Nota: En total son: 2 partes (1 de 001.00 GB; 1 de 409.10 MB).

- MD5 Signature .MP4: 784E0E06 - 30107FAB - 4458F9F8 - 4B15B66C

- MD5 Signature .ZIP: 3646562D - 46B1E583 - 281703F0 - 68FAB452







identi.li/wolf


Death of a Superhero|1080p|EN|Mega|Wolf
15 Puntos Score: 7.5/10
Visitas: 2948 Favoritos: 1
Ver los usuarios que votaron...
6 Comentarios Death of a Superhero|1080p|EN|Mega|Wolf
se ve buena, me puedes paras los links directos porfa?
amigo me podrias dar los link directos por favor  
llevo tiempo buscando esta peli hasta que la encuentro pero esta para descargar por jdoloader
Se ve buena, gracias por compartir
Saludos
te pido los links yo tbien! buen aporte! muchas gracias!
Se ve muy buena la peli muchas gracias  
Para dejar un comentario Registrate! o.. eres ya usuario? Accede!