Castaway|1080p|EN|Mega|Wolf



Bienvenidos Identikeros...

En este aporte les traigo una de mis películas favoritas de Tom Hanks, "Castaway" o en español "El Náufrago", que trata sobre un pobre hombre que queda varado en una isla por desierta por 4 años, en completa soledad, con solo un balón de volleyball por compañía...

La calidad es Full HD 1080p, el audio es en Inglés y los subtitulos son en un archivo .SRT incluido en el .ZIP, sin mas que decir, pasen, descarguen, comenten, disfruten y punteen...




Castaway | El Náufrago
1080p|Inglés|Mega











Ficha técnica

Dirección: Robert Zemeckis
Producción: Tom Hanks, Jack Rapke, Steve Starkey, Robert Zemeckis
Guion: Willian Broyles Jr.
Música: Elvis Presley, Alan Silvestri, Nick Searcy, Gilberto Corzo, Jerry Lovet
Maquillaje: Deborah La Mia
Fotografía: Don Burgess
Montaje: Arthur Schmidt
Vestuario: Joanna Johnston
Efectos especiales: Larz Anderson
Protagonistas: Tom Hanks, Helen Hunt

Datos y cifras

País(es): Estados Unidos
Año: 2000
Género: Drama
Duración: 143 minutos aprox.
Idioma(s): Inglés
Distribución: DreamWorks, 20th Century Fox


Sinopsis

Chuck Noland, un ejecutivo de la empresa multinacional de mensajería FedEx, se ve apartado de su cómoda vida y de su prometida a causa de un accidente de avión que lo deja aislado de la civilización en una remota isla tropical en medio del océano. Tras cuatro años de lucha por la supervivencia, completamente solo en la isla, Chuck aprende todas las técnicas de subsistencia mientras sufre la tortura de la soledad. La solución: arriesgar la vida adentrándose mar adentro.

Datos del archivo

General

Complete name                            : MO-C-YAWATSAC[1080d][EN][Wolf].mp4
Format                                   : MPEG-4
File size                                : 1.10 GB
Duration                                 : 2h 23mn

Vídeo

Format                                   : AVC
Format/Info                              : Advanced Video Codec
Duration                                 : 2h 23mn
Width                                    : 1 920 pixels
Height                                   : 1 080 pixels
Stream size                              : 1.00 GiB (91%)
Writing library                          : x264 core

Audio

Format                                   : AAC
Format/Info                              : Advanced Audio Codec
Duration                                 : 2h 23mn
Channel(s)                               : 2 channels
Channel positions                        : Front: L R
Stream size                              : 98.7 MiB (9%)
Language                                 : English


Datos de la descarga

- Formato de la Descarga: .__a
- Contenedor del Archivo: .ZIP
- Nombre de la Película: Castaway - El Náufrago
- Nombre del Archivo: MO-C-YAWATSAC[1080d][EN][Wolf].mp4
- Formato: .MP4
- Tamaño: 1.10 GB
- Duración : 2h 23m
- Ancho del Vídeo: 1.920 pixeles
- Alto del Vídeo: 1080 pixeles
- Audio : Sencillo
- Idioma: Ingles
- Subtitulos: Archivo .SRT incluido en el .ZIP












Instrucciones

1. Descargar los archivos y guardar en una carpeta a conveniencia, unir las partes con File Spliter & Joiner (v3.3). No se asusten si no reconocen el formato .001, el formato .__A es es mismo solo que encriptado. (HJSplit y 7Zip pueden funcionar en algunos casos, pero no es recomendado).

2. El resultado será un archivo .ZIP, decomprimir el archivo y listo, tendrán el vídeo o un archivo con extensión .DAT o sin extensión y algunas imágenes.

3. Como método de seguridad personal yo elimino la extensión .MP4 del vídeo y la sustituyo con una extensión .DAT, al descomprimir el archivo .ZIP como resultado verán un archivo con extensión .DAT, entre otras cosas, este archivo es el vídeo, cambiar la extensión y colocar .MP4.

- Nota: En total son: 2 partes (1 de 001.00 GB; 1 de 106.20 MB).

- MD5 Signature .MP4: 065826C0 - 69467F3E - E049E72B - FBC56DA7

- MD5 Signature .ZIP: 615903BC - 41EB9039 - 75523582 - B6E1886F







identi.li/wolf


Castaway|1080p|EN|Mega|Wolf
0 Puntos Score: 0/10
Visitas: 2084 Favoritos: 1
8 Comentarios Castaway|1080p|EN|Mega|Wolf
Disculpa por lo que voy a decir nada personal pero esta es una de las peores pel?
@arkiman por eso se dice que entre gustos y colores nadie a escrito los autores, porque todos tenemos gustos distintos, esta es una de las que mas me ha gustado de Tom Hanks...
Un consejo, El que lo hagas m?
@Lecnel : TIENES ABSOLUTAMENTE TODA LA RAZ?
me lleva a.... http://127.0.0.1:9666/flash/addcrypted2 nada que hacer... tan facil que es poner descargar y punto. gracias de todas maneras. saludos
@lvillalba brother tienes intalado el JD con el Click 'n'Load??

@Rkngelgi Tenes raz?
si claro lo tengo instalado
Cita arkiman: Mostrar
Para dejar un comentario Registrate! o.. eres ya usuario? Accede!