Bulletproof Monk|1080p|EN|Mega|Wolf



Bienvenidos Identikeros...

En esta ocasión les traigo una de mucho Kung Fu y acción, pero algo viejita, se llama "Bulletproof Monk, o en español "El Monje".

La calidad es Full HD 1080p, audio sencillo en Inglés y subtitulos en un archivo .SRT incluidos en el .ZIP




Bulletproof Monk | El Monje
1080p|Inglés|Mega











Ficha técnica

Año: 2003
Duración: 103 min.
País: Estados Unidos
Director: Paul Hunter
Guión: Ethan Reiff & Cyrus Voris (Cómic: Brett Lewis & R.A. Jones)
Música: Eric Serra
Fotografía: Stefan Czapsky
Reparto: Chow Yun-Fat, Seann William Scott, Jaime King, Karel Roden, Victoria Smurfit, Marcus Jean Pirae, Roger Yuan
Productora: MGM, Laskeshore Entertainment
Género: Acción, Artes marciales, Cómic


Sinopsis

Basado en un cómic "underground", relata la historia de un monje tibetano inmortal -Chow- que se convierte en el mentor de un joven chico de la calle -Scott-, a quien enseña a proteger un viejo pergamino que el monje ha cuidado durante sesenta años. Con la ayuda de una sexy y escurridiza joven -King-, ambos combatirán contra un malvado maestro de kung fu que no se detendrá hasta hacerse con el pergamino.

Datos del archivo

General

Complete name                            : MO-B-KNOMFOORPTELLUB[1080d][EN][Wolf].mp4
Format                                   : MPEG-4
File size                                : 1.40 GB
Duration                                 : 1h 43mn

Vídeo

Format                                   : AVC
Format/Info                              : Advanced Video Codec
Duration                                 : 1h 43mn
Width                                    : 1 920 pixels
Height                                   : 816 pixels
Stream size                              : 1.33 GiB (95%)
Writing library                          : x264 core

Audio

Format                                   : AAC
Format/Info                              : Advanced Audio Codec
Duration                                 : 1h 43mn
Channel(s)                               : 2 channels
Channel positions                        : Front: L R
Stream size                              : 71.2 MiB (5%)


Datos de la descarga

- Formato de la Descarga: .__a
- Contenedor del Archivo: .ZIP
- Nombre de la Película: Bulletproof Monk - El Monje
- Nombre del Archivo: MO-B-KNOMFOORPTELLUB[1080d][EN][Wolf].mp4
- Formato: .MP4
- Tamaño: 1.40 GB
- Duración : 2h 49m
- Ancho del Vídeo: 1.920 pixeles
- Alto del Vídeo: 816 pixeles
- Audio : Sencillo
- Idioma: Ingles
- Subtitulos: Archivo .SRT incluido en el .ZIP









Instrucciones

1. Descargar los archivos y guardar en una carpeta a conveniencia, unir las partes con File Spliter & Joiner (v3.3). No se asusten si no reconocen el formato .001, el formato .__A es es mismo solo que encriptado. (HJSplit y 7Zip pueden funcionar en algunos casos, pero no es recomendado).

2. El resultado será un archivo .ZIP, decomprimir el archivo y listo, tendrán el vídeo o un archivo con extensión .DAT o sin extensión y algunas imágenes.

3. Como método de seguridad personal yo elimino la extensión .MP4 del vídeo y la sustituyo con una extensión .DAT, al descomprimir el archivo .ZIP como resultado verán un archivo con extensión .DAT, entre otras cosas, este archivo es el vídeo, cambiar la extensión y colocar .MP4.

- Nota: En total son: 2 partes (1 de 001.00 GB; 1 de 408.90 MB).

- MD5 Signature .MP4: 265D378A - F4C54ED7 - BDAB5E86 - 203C51C4

- MD5 Signature .ZIP: B62CE21E - 8E9B97F8 - 8BA4076F - 479DF590







identi.li/wolf


Bulletproof Monk|1080p|EN|Mega|Wolf
0 Puntos Score: 0/10
Visitas: 3411 Favoritos: 2
4 Comentarios Bulletproof Monk|1080p|EN|Mega|Wolf
No la tendras en latino por ahi??,jeje
amigo, administras una pagina en face sobre anime?  

 
@CR07GT Nah brother, solo ingl?
k tal amigo t agradeceria innfinitamente si pudieras dejar solo los links del archivo ya k no todos tienen el jdownloader o mipony para realizar la descarga y otros como yo k tienen problemas al descargar asi hehehehe bueno si  puedes t lo agradeceria infinitamente ya k esta peli la e buscado y np la encuentro y si la tienes en espa?
Para dejar un comentario Registrate! o.. eres ya usuario? Accede!