Angels & Demons|1080p|EN|Mega|Wolf



Bienvenidos Identikeros...

En esta ocasión les traigo la secuela del éxito de suspenso y misterio que fue el Código da Vinci, la segunda parte titulada "Angels & Demons", o en español, Ángeles & Demonios...

Está en calidad Full HD 1080p, con audio en Inglés y subtitulos en archivo .SRT incluidos en el .ZIP, sin mas que decir, pasen, descarguen, comenten, disfruten y punteen...




Angels & Demons | Ángeles & Demonios
1080p|Inglés|Mega











Ficha técnica

Dirección: Ron Howard
Dirección artística: Alex Cameron, Dawn Swiderski
Producción: Brian Grazer, Ron Howard, John Calley
Diseño de producción: Allan Cameron
Guion: David Koepp, Akiva Goldsman
Música: Hans Zimmer
Protagonistas: Tom Hanks, Ayelet Zurer, Ewan McGregor, Stellan Skarsgård, Pierfrancesco Favino, Nikolaj Lie Kaas, Thure Lindhardt, Armin Mueller-Stahl

Datos y cifras

País(es): Estados Unidos
Año: 2009
Género: Thriller
Duración: 138 minutos
Idioma(s): Inglés
Productora: Sony
Distribución: Columbia Pictures, Imagine Entertaiment
Presupuesto: $150.000.000
Recaudación: $478,314,866


Sinopsis

El profesor de simbología religiosa Robert Langdon, absorto en la investigación de una antigua secta satánica, la de los "Illuminati", busca el arma más mortífera de la humanidad (antimateria), que algunos miembros de esta secta han introducido en el Vaticano. Langdon y una científica italiana se lanzan a una carrera contrarreloj para evitar el desastre. Tras "El código da Vinci", Tom Hanks vuelve a interpretar al profesor Langdon.

Datos del archivo

General

Complete name                            : MO-A-SNOMED&SLEGNA[1080d][EN][Wolf].mp4
Format                                   : MPEG-4
File size                                : 1.80 GB
Duration                                 : 2h 18mn

Vídeo

Format                                   : AVC
Format/Info                              : Advanced Video Codec
Duration                                 : 2h 18mn
Width                                    : 1 920 pixels
Height                                   : 800 pixels
Stream size                              : 1.71 GiB (95%)
Writing library                          : x264 core

Audio

Format                                   : AAC
Format/Info                              : Advanced Audio Codec
Duration                                 : 2h 18mn
Channel(s)                               : 2 channels
Channel positions                        : Front: L R
Stream size                              : 91.2 MiB (5%)
Language                                 : English


Datos de la descarga

- Formato de la Descarga: .__a
- Contenedor del Archivo: .ZIP
- Nombre de la Película: Angels & Demons - Ángeles & Demonios
- Nombre del Archivo: MO-A-SNOMED&SLEGNA[1080d][EN][Wolf].mp4
- Formato: .MP4
- Tamaño: 1.80 GB
- Duración : 2h 18m
- Ancho del Vídeo: 1.920 pixeles
- Alto del Vídeo: 800 pixeles
- Audio : Sencillo
- Idioma: Ingles
- Subtitulos: Archivo .SRT incluido en el .ZIP










Instrucciones

1. Descargar los archivos y guardar en una carpeta a conveniencia, unir las partes con File Spliter & Joiner (v3.3). No se asusten si no reconocen el formato .001, el formato .__A es es mismo solo que encriptado. (HJSplit y 7Zip pueden funcionar en algunos casos, pero no es recomendado).

2. El resultado será un archivo .ZIP, decomprimir el archivo y listo, tendrán el vídeo o un archivo con extensión .DAT o sin extensión y algunas imágenes.

3. Como método de seguridad personal yo elimino la extensión .MP4 del vídeo y la sustituyo con una extensión .DAT, al descomprimir el archivo .ZIP como resultado verán un archivo con extensión .DAT, entre otras cosas, este archivo es el vídeo, cambiar la extensión y colocar .MP4.

- Nota: En total son: 2 partes (1 de 001.00 GB; 1 de 819.90 MB).

- MD5 Signature .MP4: 1F148D60 - E8BC8011 - 5DA956DA - D7893DD5

- MD5 Signature .ZIP: FA051B16 - DB0C3238 - 3E4C817D - 0250FBED







identi.li/wolf


Angels & Demons|1080p|EN|Mega|Wolf
20 Puntos Score: 10/10
Visitas: 4752 Favoritos: 3
Ver los usuarios que votaron...
14 Comentarios Angels & Demons|1080p|EN|Mega|Wolf
al intentar juntar las partes me pide una password.. ?? cual es ._.
lo estoy haciendo con el programa que dijiste que se hac?
le pongo la pass que me pide, la que escribiste t?
@Wolfgang usa copia y pega, si no te sirve, introducela manualmente, seguramente ya intentaste eso, pero por si acaso, en caso tal de que aun no funcione, o que funcione av?
amigo hise eso q dijiste eso de extraer los archivos zip con es programa File Spliter & Joiner v3.3 me quedaron los zip
pero cuando los extraigo me salen otro zip uno solo q pesa 1 gb q mierda hago x q me dice q no es un archivo conprimido  ??????  
@naranj brother te debe quedar un solo archivo .ZIP, no varios, aseg?
donde se descarga el winzip pasame la pagina porfa  
no se como extraerlo mejor lo ubieses puesto en .rar friend
@fernandos Brother en las instrucciones puse el programa con que unir las partes .__A, y el archivo .ZIP se puede descomprimir con cualquier programa compatible, puede ser WinRAR, WinZIP, 7Zip, o cualquier otro...
Cita Lecnel: Mostrar
ntp ya lo descargue en otro sitio
No hay caso man, intento y siempre me dice lo mismo, el programa me dice "contrase?
LOS LINKS ESTAN CAIDOS
@Wolfgang Algo tarde llego a ayudar, pero hoy baj?
no puedo!!!! U__U hice TODO!! y aun nada.. T__T
Hola man, fijate que estoy tratando de unirlos, ahora tengo los programas que recomendaste, pero no consigo unirlos.
Primero los parto y me queda un archivo 001(a), y despu?
Para dejar un comentario Registrate! o.. eres ya usuario? Accede!