Oops.. Este post tiene los enlaces eliminados!

Identi revisa las denuncias de los usuarios en busca de enlaces eliminados que no dejan descargar los archivos, este mensaje te informa que este post que estas viendo tiene los enlaces eliminados.

Usa el Buscador

Por favor, te recomendamos que uses el buscador para encontrar más alternativas.

La Ventana Indiscreta 1954 Alfred Hitchcock latino

  • Categoría: Reciclaje
  • Publicado hace más de 3 años
La Ventana Indiscreta [1954] [Alfred Hitchcock] [DvdRip-Avi] [Latino] 







capturas






Ficha Técnica:
TÍTULO ORIGINAL           Rear Window  (La Ventana Indiscreta)
AÑO      1954
DURACIÓN         112 min.
PAÍS      [Estados Unidos]
DIRECTOR           Alfred Hitchcock
GUIÓN                 John Michael Hayes (Historia: Cornell Woolrich)
MÚSICA              Franz Waxman
FOTOGRAFÍA    Robert Burks
REPARTO            James Stewart, Grace Kelly, Thelma Ritter, Raymond Burr, Judith Evelyn, Wendell Corey
PRODUCTORA Paramount Pictures
PREMIOS            1954: 4 nominaciones al Oscar: Mejor director, sonido, fotografía color, guión
1954: Círculo de críticos de Nueva York: Mejor actriz (Grace Kelly)
GÉNERO              Intriga | Película de culto. Espionaje
SINOPSIS            Un reportero fotográfico (Stewart) se ve obligado a permanecer en reposo con una pierna escayolada. A pesar de la compañía de su novia (Kelly) y de su enfermera (Ritter), procura escapar al tedio observando desde la ventana de su apartamento con unos prismáticos lo que ocurre en las viviendas de enfrente. Debido a una serie de extrañas circunstancias empieza a sospechar de un vecino cuya mujer ha desaparecido.


Peso: 1.05 GB
Duración: 1:54:10 Hrs.
Calidad: DvdRip
Formato: Avi
Idioma: Español Latino

General
Complete name                            : F:FFOutputAlfred Hitchcock - La ventana indiscreta..avi
Format                                   : AVI
Format/Info                              : Audio Video Interleave
Format profile                           : OpenDML
File size                                : 1.06 GiB
Duration                                 : 1h 54mn
Overall bit rate                         : 1 326 Kbps
Writing application                      : Magic0515

Video
ID                                       : 0
Format                                   : MPEG-4 Visual
Format profile                           : Advanced [email protected]
Format settings, BVOP                    : No
Format settings, QPel                    : No
Format settings, GMC                     : No warppoints
Format settings, Matrix                  : Default (H.263)
Codec ID                                 : XVID
Codec ID/Hint                            : XviD
Duration                                 : 1h 54mn
Bit rate                                 : 1 181 Kbps
Width                                    : 640 pixels
Height                                   : 360 pixels
Display aspect ratio                     : 16:9
Frame rate                               : 29.970 fps
Color space                              : YUV
Chroma subsampling                       : 4:2:0
Bit depth                                : 8 bits
Scan type                                : Progressive
Compression mode                         : Lossy
Bits/(Pixel*Frame)                       : 0.171
Stream size                              : 965 MiB (89%)
Writing library                          : Magic0432

Audio
ID                                       : 1
Format                                   : MPEG Audio
Format version                           : Version 1
Format profile                           : Layer 3
Mode                                     : Joint stereo
Mode extension                           : MS Stereo
Codec ID                                 : 55
Codec ID/Hint                            : MP3
Duration                                 : 1h 54mn
Bit rate mode                            : Constant
Bit rate                                 : 128 Kbps
Channel(s)                               : 2 channels
Sampling rate                            : 44.1 KHz
Compression mode                         : Lossy
Stream size                              : 105 MiB (10%)
Alignment                                : Aligned on interleaves
Interleave, duration                     : 26 ms (0.78 video frame)



descarga billionuploads



























































La Ventana Indiscreta 1954 Alfred Hitchcock latino
17 Puntos Score: 5.7/10
Visitas: 1722 Favoritos: 1
Ver los usuarios que votaron...
2 Comentarios La Ventana Indiscreta 1954 Alfred Hitchcock latino
La estaba buscando en latino. Grax y +5
Para dejar un comentario Registrate! o.. eres ya usuario? Accede!