Pocosmegas
"Pocosmegashd Madafackas xD"

Iron Man 3 PDVRIP | 2013 | Dual Eng/Ind | Mega

Hola Usuarios e Invitados,
 
 Aqui les traigo una version de Iron Man 3
 
 
 
Si Bien esta version esta en indi-ingles esta pd-dvdrip, yo eh mirado la resolucion y es muy buena la mejor que eh mirado de esta pelicula asi que pues es a su criterio si la quieren descargar, si alguien se anima a ponerle el audio latino grabado de cine seria grandioso, yo solo soy un usuario promedio que ANTES tenia el Nick de Ekisde, pero por razones (no se cuales) me banearon en identi y un amigo me creo esta cuenta pienso regresar con estreno en dvdrip solamente pues los estrenos en HD estaran en mi web solamente y ACLARO no estoy haciendo spam de ningun tipo, sin mas aqui esta la pelicula:
 
 
- - - - - - - - - - - - - - - - - - - - - - - - - - - - - - - - - - - - - - - - - - - - - - - - - - - - - - - - - - -
 


Bueno Aqui les traigo esta version nueva, no hay subtitulos para esta version todavia, antes de decir cualquier cosa yo la descargue  en la pagina indu y decia que era Pdvdrip asi que pues luego de checar asi deja la descripcion









"Iron Man 3" Sitio de Marvel impetuoso-pero-brillante empresario Tony Stark / Iron Man contra un enemigo cuyo alcance no tiene límites. Cuando Stark encuentra su mundo personal destruido a manos de su enemigo, se embarca en una búsqueda angustiosa de encontrar a los responsables. Este viaje, en todo momento, pondrá a prueba su temple. Con la espalda contra la pared, Stark se deja a sobrevivir por sus propios medios, confiando en su ingenio y su instinto de proteger a las personas más cercanas a él. Como él lucha su camino de regreso, Stark descubre la respuesta a la pregunta que le ha perseguido en secreto: ¿el hombre hace el traje o el traje no hace al hombre?




MKV | 2013 | 900 MB | Dual Eng - Indú | 1:58 Hr | PDVDRIP

Informacion Del Archivo

Complete name: E:ZoT Yago TatodescargasNo seleccionadowww.pocosmegashd.com - Ekisde [im]www.pocosmegashd.com - Ekisde.mkv
Format: Matroska
Format version: Version 4 / Version 2
File size : 907 MiB
Duration: 1h 58mn
Overall bit rate: 1 072 Kbps
Movie name: By Ekisde 
Encoded date: UTC 2013-05-06 09:52:45
Writing library : libebml v1.3.0 + libmatroska v1.4.0

Video
ID: 1
Format: AVC
Format/Info: Advanced Video Codec
Format profile: [email protected]
Format settings, CABAC : Yes
Format settings, ReFrames   : 4 frames
Codec ID: V_MPEG4/ISO/AVC
Duration: 1h 58mn
Bit rate: 814 Kbps
Width: 640 pixels
Height: 272 pixels
Display aspect ratio: 2.35:1
Frame rate mode: Constant
Frame rate: 25.000 fps
Color space: YUV
Chroma subsampling: 4:2:0
Bit depth : 8 bits
Scan type: Progressive
Bits/(Pixel*Frame) : 0.187
Stream size  : 672 MiB (74%)
Title: 
Writing library : x264 core 130 r2273 b3065e6
Default: Yes
Forced: No

Audio #1
ID   : 2
Format : AC-3
Format/Info  : Audio Coding 3
Mode extension: CM (complete main)
Format settings, Endianness : Big
Codec ID: A_AC3
Duration : 1h 58mn
Bit rate mode : Constant
Bit rate : 128 Kbps
Channel(s): 2 channels
Channel positions : Front: L R
Sampling rate  : 48.0 KHz
Bit depth  : 16 bits
Compression mode                        : Lossy
Stream size: 108 MiB (12%)
Title: pocosmegashd
Language : English
Default: Yes
Forced  : No

Audio #2
ID : 3
Format : AC-3
Format/Info: Audio Coding 3
Mode extension: CM (complete main)
Format settings, Endiannes: Big
Codec ID : A_AC3
Duration: 1h 58mn
Bit rate mode: Constant
Bit rate  : 128 Kbps
Channel(s): 2 channels
Channel positions : Front: L R
Sampling rate : 48.0 KHz
Bit depth : 16 bits
Compression mode : Lossy
Stream size: 108 MiB (12%)
Title  : ekisde
Language : Hindi
Default: No
Forced  : No






NOTA
Porque le puse PDVDRIP, cuando es grabada del cine?
Pues es muy buena la calidad para ser grabado y ademas, asi tenia como titulo en la pagina indu  asi que para que no haiga pierde asi la deje xD









Tutorial para descargar con Jdownloder




PASSWORD
pocosmegashd








Iron Man 3 PDVRIP | 2013 | Dual Eng/Ind | Mega
33 Puntos Score: 6.6/10
Visitas: 6099 Favoritos: 4
Ver los usuarios que votaron...
17 Comentarios Iron Man 3 PDVRIP | 2013 | Dual Eng/Ind | Mega
en estos casos lo ideal seria poner capturas, pero, se agradece el trabajo....
parece buena! +10
HAIGA?????       diccionario please!!!
se le agradece men  
muy buena la pelicula eh, saludos
Hola se agradece por este aporte y por tu es fuerzo saludos  
"haiga" esta bien escribido lo unico bueno q saque de este post
capturas?¿????
Se ve bien para ser cam, pero para nada es PDVD.
@gmorck pdvd es una version de un custom hecho en la india para ser comercializado ilegalmente en las calles... casi siempre traen audio hindu... como esta version.. no confundir con dvdscreener o dvdrip
chicos no quiero hacer publicidad ni nada pero esta se ve mucho mejor . solo que esta en ingles http://www.identi.li/index.php?topic=201936
y aca los subtitulos http://www.subdivx.com/X6XMzMwNTYzX-iron-man-3.html
Amigo blazeer, haiga es una forma verbal del castellano antiguo en desuso, lo correcto es decir "haya". Tampoco se acepta escribido, si "escrito". Gracias.
"Pues es muy buena la calidad para ser grabado" Buen chiste, he visto mucho mejor calidad en otras grabadas en cine.
con que audio se escucha mejor??  
Para dejar un comentario Registrate! o.. eres ya usuario? Accede!