Up (DVDRip - Latino)

Up (DVDRip - Latino)




    "Up" cuenta la historia de un vendedor de globos de 78 años, Carl Fredricksen, quien finamente consigue llevar a cabo el sueño de su vida al enganchar miles de globos a su casa y salir volando rumbo a América del Sur. Pero descubre demasiado tarde que la mayor de sus pesadillas se ha embarcado también en el viaje: un explorador de la jungla llamado Russell, que tiene 8 años y un optimismo a prueba de bombas.


Iformacion del archivo

General
Format                 : AVI
Format/Info              : Audio Video Interleave
File size                : 762 MiB
Duration               : 1h 36mn
Overall bit rate           : 1 103 Kbps

Video
ID                   : 0
Format                 : MPEG-4 Visual
Format profile             : [email protected]
Format settings, BVOP        : No
Format settings, QPel        : No
Format settings, GMC         : No warppoints
Format settings, Matrix      : Default (H.263)
Codec ID               : XVID
Codec ID/Hint            : XviD
Duration               : 1h 36mn
Bit rate               : 898 Kbps
Width                  : 640 pixels
Height                 : 480 pixels
Display aspect ratio         : 4:3
Frame rate               : 30.000 fps
Color space              : YUV
Chroma subsampling         : 4:2:0
Bit depth                : 8 bits
Scan type                : Progressive
Bits/(Pixel*Frame)         : 0.097
Stream size              : 621 MiB (81%)
Writing library            : XviD 1.2.1 (UTC 2008-12-04)

Audio
ID                   : 1
Format                 : MPEG Audio
Format version             : Version 1
Format profile             : Layer 3
Mode                   : Joint stereo
Mode extension             : MS Stereo
Codec ID               : 55
Codec ID/Hint            : MP3
Duration               : 1h 36mn
Bit rate mode            : Constant
Bit rate               : 192 Kbps
Channel(s)               : 2 channels
Sampling rate            : 44.1 KHz
Stream size              : 132 MiB (17%)
Alignment                : Aligned on interleaves
Interleave, duration         : 26 ms (0.78 video frame)
Interleave, preload duration   : 26 ms
Writing library            : LAME3.98.2




Up (DVDRip - Latino)
10 Puntos Score: 10/10
Visitas: 919 Favoritos: 2
Ver los usuarios que votaron...
2 Comentarios Up (DVDRip - Latino)
gracias. No tengo puntos para darte
Podes rebisar. La parte 8 esta da?
Para dejar un comentario Registrate! o.. eres ya usuario? Accede!