Message in a Bottle [1080p][EN][ME][Wolf]



Hola Identikeros y Bienvenidos...

En esta ocasión me salgo de mis géneros comunes de acción, comedia y animación para traerles algo de drama, une peli perfecta para ver con buena compañía. No les cuento nada, mas abajito esta la sinopsis.

La calidad es Full HD 1080p, con audio Sencillo en Inglés y Subtítulos incluidos en el .ZIP




Message in a Bottle - Mensaje en una Botella
[1080p][Ingles][ME]











Ficha técnica

Dirección: Luis Mandoki
Producción: Kevin Costner, Denise Di Novi, Jim Wilson
Música: Gabriel Yared
Fotografía: Caleb Deschanel
Montaje: Steven Weisberg
Protagonistas: Kevin Costner, Robin Wright Penn, Paul Newman

Datos y cifras

País(es): Estados Unidos
Año: 1999
Duración: 131 min.
Idioma(s): Inglés
Distribución: Warner Bros., Tig Productions, Bel Air Entertainment, Di Novi Pictures Pathe
Presupuesto: $80 millones
Recaudación: $118,880,016


Sinopsis

Durante un paseo por la playa, una periodista (Robin Wright Penn) del Chicago Tribune, divorciada y con un hijo, encuentra una botella con una carta de amor en su interior. Intrigada, decide buscar a su autor, un marinero viudo (Kevin Costner) que intenta superar la pérdida de su mujer.

Datos del Archivo

General

Complete name                            : MO-M-ELTTOBANIEGASSEM[1080p][EN][Wolf].mp4
Format                                   : MPEG-4
File size                                : 1.75 GiB
Duration                                 : 2h 10mn

Video

Format                                   : AVC
Format/Info                              : Advanced Video Codec
Duration                                 : 2h 10mn
Width                                    : 1 920 pixels
Height                                   : 816 pixels
Stream size                              : 1.66 GiB (95%)
Writing library                          : x264 core

Audio

Format                                   : AAC
Format/Info                              : Advanced Audio Codec
Duration                                 : 2h 10mn
Channel(s)                               : 2 channels
Channel positions                        : Front: L R
Stream size                              : 86.1 MiB (5%)
Language                                 : English


Datos de la Descarga

- Formato de la Descarga: .__a
- Contenedor del Archivo: .ZIP
- Nombre de la Película: Message in a Bottle - Mensaje en una Botella
- Nombre del Archivo: MO-M-ELTTOBANIEGASSEM[1080p][EN][Wolf].mp4
- Formato: .MP4
- Tamaño: 1.75 GB
- Duración : 2h 10m
- Ancho del Vídeo: 1.920 pixeles
- Alto del Vídeo: 816 pixeles
- Audio : Sencillo
- Idioma: Ingles
- Subtitulos: Archivo .SRT incluido en el .ZIP












Instrucciones

1. Descargar los archivos y guardar en una carpeta a conveniencia, unir las partes con File Spliter & Joiner (v3.3). No se asusten si no reconocen el formato .001, el formato .__A es es mismo solo que encriptado. (HJSplit y 7Zip pueden funcionar en algunos casos, pero no es recomendado).

2. El resultado será un archivo .ZIP, decomprimir el archivo y listo, tendrán el vídeo o un archivo con extensión .DAT o sin extensión y algunas imágenes.

3. Como método de seguridad personal yo elimino la extensión .MP4 del vídeo y la sustituyo con una extensión .DAT, al descomprimir el archivo .ZIP como resultado verán un archivo con extensión .DAT, entre otras cosas, este archivo es el vídeo, cambiar la extensión y colocar .MP4.

- Nota: En total son: 2 partes (1 de 001.00 GB; 1 de 771.70 MB).

- MD5 Signature .MKV: 53DA99C6 - E4E204EC - D4FEC692 - 355F6F0D

- MD5 Signature .ZIP: FEDBD7DC - C9B39708 - B66129F5 - 49A1DCB9







identi.li/wolf


Message in a Bottle [1080p][EN][ME][Wolf]
0 Puntos Score: 0/10
Visitas: 6403 Favoritos: 6
15 Comentarios Message in a Bottle [1080p][EN][ME][Wolf]
@bonanott Brother, la verdad no se, esa fue la ?
He buscado mucho esta pelicula y mucho mejor que es 1080p!, no seria molestia que me dieras los links, no soy muy fan de usar jdownloader.
Gracias por el aporte .
Muchas gracias p compartirla!
Vamos a ver que tal si es con el sr. Kevin k. es buena se agradece el aporte  
Excelente imagen, Lastima que los subtitulos esten en gachupin. Gracias.
Amigo la contrase?
Amigazo me falla la contrase?
gracias
la buscaba para mi novia
porfin la encontre
gracias nuevamente
Muchas gracias, eres de los pocos que tiene esta peli y la buscaba desde hace mucho. Gran Valedor !!!
muchas gracias no me quedan puntos pero ma?
Para dejar un comentario Registrate! o.. eres ya usuario? Accede!