The Hobbit [1080p][EN][ME][Wolf]



Bienvenidos a este post Identikeros...

Aquí les traigo la precuela de la saga de El Señor de los Anillos, The Hobbit - An Unexpected Journey, o en espeñol, El Hobbit - Un Viaje Inesperado, que nos cuenta la historia de Bilbo Bolsón, el tío de Frodo, y de como Bilbo mientras ayudaba a 13 enanos a recuperar su tierra se encuentra con el anillo de Sauron...

La calidad es Full HD 1080p, con audio en Ingles y subtitulos .SRT incluidos en el .ZIP, sin mas que decir, pasen, descarguen, comenten, disfruten y punteen...




The Hobbit: An Unexpected Journey - El Hobbit: Un Viaje Inesperado
[1080p][Ingles][ME]













Ficha técnica

Dirección: Peter Jackson
Producción: Carolynne Cunningham, Zane Weiner, Fran Walsh, Peter Jackson
Diseño de producción: Dan Hennah
Guion: Fran Walsh, Philippa Boyens, Peter Jackson, Guillermo del Toro
Basada en: El hobbit, de J. R. R. Tolkien
Música: Howard Shore
Sonido: Neil Aldridge
Fotografía:  Andrew Lesnie
Montaje: Jabez Olssen
Vestuario: Bob Buck, Ann Maskrey, Richard Taylor
Efectos especiales: Weta Workshop (físicos), Weta Digital (digitales)
Protagonistas: Ian McKellen, Martin Freeman, Richard Armitage, Ken Stott, Graham McTavish, William Kircher, James Nesbitt, Stephen Hunter, Dean O'Gorman, Aidan Turner, John Callen, Peter Hambleton, Jed Brophy, Mark Hadlow, Adam Brown, Ian Holm, Elijah Wood, Hugo Weaving, Cate Blanchett, Christopher Lee, Andy Serkis, Sylvester McCoy y Barry Humphries

Datos y cifras

País(es): Nueva Zelanda, Estados Unidos, Reino Unido
Año: 2012
Género: Aventura, Fantasía
Duración: 169 minutos
Clasificación: PG-13, M
Idioma(s): Inglés
Productora: Metro-Goldwyn-Mayer, New Line Cinema, WingNut Films
Distribución: Warner Bros. Pictures
Presupuesto: $200-315 millones
Recaudación: $1.017.001.229
Sucesión de películas: The Hobbit: An Unexpected Journey - The Hobbit: The Desolation of Smaug


Sinopsis

La primera de una trilogía de películas basadas en la imperecedera obra maestra El Hobbit de J.R.R. Tolkien, El Hobbit: Un viaje inesperado sigue al personaje principal Bilbo Bolsón, quién junto al mago Gandalf y 13 enanos, liderados por Thorin Escudo de Roble, es arrastrado hacia una aventura épica para recuperar el reino enano de Erebor del terrible dragón Smaug. Su viaje les hace adentrarse en el bosque cruzando tierras peligrosas, donde se encontrarán con trasgos, orcos y wargos, así como una misteriosa y siniestra figura llamada Nigromante. A lo largo del camino, el sencillo Bilbo Bolsón no solo descubre, y se sorprende, de lo astuto y valiente que puede llegar a ser, sino que se hace con un ?tesoro?, un anillo ligado al destino de la Tierra Media hasta un punto que ni él mismo puede imaginar.

Datos del Archivo

General

Complete name                            : MO-L-LR4-TIBBOHEHT[1080d].mp4
Format                                   : MPEG-4
File size                                : 2.50 GiB
Duration                                 : 2h 49mn

Video

Format                                   : AVC
Format/Info                              : Advanced Video Codec
Duration                                 : 2h 49mn
Width                                    : 1 920 pixels
Height                                   : 800 pixels
Stream size                              : 2.38 GiB (95%)

Audio

Format                                   : AAC
Format/Info                              : Advanced Audio Codec
Duration                                 : 2h 49mn
Channel(s)                               : 2 channels
Channel positions                        : Front: L R
Stream size                              : 116 MiB (5%)
Language                                 : English


Datos de la Descarga

- Formato de la Descarga: .__a
- Contenedor del Archivo: .ZIP
- Nombre de la Película: The Hobbit: An Unexpected Journey - El Hobbit: Un Viaje Inesperado
- Nombre del Archivo: MO-L-LR4-TIBBOHEHT[1080d].mp4
- Formato: .MP4
- Tamaño: 2.50 GB
- Duración : 2h 49m
- Ancho del Vídeo: 1.920 pixeles
- Alto del Vídeo: 800 pixeles
- Audio : Sencillo
- Idioma: Ingles
- Subtitulos: Archivo .SRT incluido en el .ZIP












Instrucciones

1. Descargar los archivos y guardar en una carpeta a conveniencia, unir las partes con File Spliter & Joiner (v3.3). No se asusten si no reconocen el formato .001, el formato .__A es es mismo solo que encriptado. (HJSplit y 7Zip pueden funcionar en algunos casos, pero no es recomendado).

2. El resultado será un archivo .ZIP, decomprimir el archivo y listo, tendrán el vídeo o un archivo con extensión .DAT o sin extensión y algunas imágenes.

3. Como método de seguridad personal yo elimino la extensión .MP4 del vídeo y la sustituyo con una extensión .DAT, al descomprimir el archivo .ZIP como resultado verán un archivo con extensión .DAT, entre otras cosas, este archivo es el vídeo, cambiar la extensión y colocar .MP4.

- Nota: En total son: 3 partes (2 de 001.00 GB; 1 de 509.30 MB).

- MD5 Signature .MP4: 248F81D4 - 6EC6A77F - 8648961D - 75A80FA5

- MD5 Signature .ZIP: 2FA8D231 - D4044926 - 8490432A - 7ED5F7F5







identi.li/wolf


The Hobbit [1080p][EN][ME][Wolf]
0 Puntos Score: 0/10
Visitas: 3000 Favoritos: 1
8 Comentarios The Hobbit [1080p][EN][ME][Wolf]
y los link....
Cita julyo: Mostrar

tienes que tener el jdownloader instalado amigo
Gran aporte, Se agradece
mil gracias, de lujo el aporte
al descomprimir kon spliter y joiner me pide paswor
@ronalton27 El pass esta en el post brother...
bien enredado el tema para unir y ver la peli, tuve que bajar un programa y leer tutoriales, gracias pero no habia un aforma de hacerlo mas sencillo?
Para dejar un comentario Registrate! o.. eres ya usuario? Accede!