Lockout [1080p][Dual][ME][Wolf]



Bienvenido Identikero...

En esta ocasión te traigo Lockout, o como se llama en español, MS1: Máxima Seguridad, una pelicula de acción francesa con mucha acción, y muy buen guión.

La calidad de la peli es Full HD 1080p, es audio Dual Inglés/Latino y los subtítulos están incluidos dentro del vídeo, espero que la disfrutes...




Lockout - MS1: Máxima Seguridad
[1080p][Dual][ME]











Ficha técnica

Dirección: James Mather, Stephen St. Leger
Producción: Marc Libert, Leila Smith
Guion: James Mather, Stephen St. Leger, Luc Besson
Música: Alexandre Azaria
Fotografía: James Mather
Protagonistas: Guy Pearce, Maggie Grace, Peter Stormare, Tom Hollander, Joseph Gilgun, Vincent Regan

Datos y cifras

País: Estados Unidos
Año: 2012
Género: Ciencia ficción, Acción
Productora: Open Road Films, FilmDistrict
Distribución: Europa Corp., Canal +, Ciné+
Presupuesto: 30 millones de dólares


Sinopsis

Snow (Guy Pearce) es acusado falsamente de espionaje. A cambio de su libertad, deberá rescatar a la hija del presidente de los Estados Unidos, Emilie (Maggie Grace) que se encuentra en una prisión de máxima seguridad en el espacio y que ha sido tomada por violentos reclusos.

Detalles del Archivo

General

Complete name                            : M-L-TUOKCOL[1080d][Dual].mkv
Format                                   : Matroska
File size                                : 1.77 GiB
Duration                                 : 1h 35mn
Movie name                               : Lockout (2012) [1080p][Dual]

Vídeo

Format                                   : AVC
Format/Info                              : Advanced Video Codec
Duration                                 : 1h 35mn
Width                                    : 1 920 pixels
Height                                   : 808 pixels
Stream size                              : 1.40 GiB (79%)
Writing library                          : x264

Audio #1

Format                                   : AC-3
Format/Info                              : Audio Coding 3
Mode extension                           : CM (complete main)
Duration                                 : 1h 35mn
Channel(s)                               : 6 channels
Channel positions                        : Front: L C R, Side: L R, LFE
Compression mode                         : Lossy
Stream size                              : 175 MiB (10%)
Title                                    : Ingles
Default                                  : No
Forced                                   : No

Audio #2

Format                                   : AC-3
Format/Info                              : Audio Coding 3
Mode extension                           : CM (complete main)
Duration                                 : 1h 35mn
Channel(s)                               : 6 channels
Channel positions                        : Front: L C R, Side: L R, LFE
Compression mode                         : Lossy
Stream size                              : 175 MiB (10%)
Title                                    : Español Latino
Default                                  : Yes
Forced                                   : Yes

Text #1

Format                                   : UTF-8
Title                                    : Subtitulos Ingles
Default                                  : No
Forced                                   : No

Text #2

Format                                   : UTF-8
Title                                    : Subtitulos Español
Default                                  : No
Forced                                   : No


Datos de la Descarga

- Formato de la Descarga: .__a
- Contenedor del Archivo: .ZIP
- Nombre de la Película: Lockout - MS1: Máxima Seguridad
- Nombre del Archivo: M-L-TUOKCOL[1080d][Dual].mkv
- Formato: .MKV
- Tamaño: 1.77 GB
- Duración : 2h 55m
- Ancho del Vídeo: 1.920 pixeles
- Alto del Vídeo: 808 pixeles
- Audio : Dual
- Idioma: Ingles -Español Latino
- Subtitulos: Incluidos en el vídeo












Instrucciones

1. Descargar los archivos y guardar en una carpeta a conveniencia, unir las partes con File Spliter & Joiner (v3.3). No se asusten si no reconocen el formato .001, el formato .__A es es mismo solo que encriptado. (HJSplit y 7Zip pueden funcionar en algunos casos, pero no es recomendado).

2. El resultado será un archivo .ZIP, decomprimir el archivo y listo, tendrán el vídeo o un archivo con extensión .DAT o sin extensión y algunas imágenes.

3. Como método de seguridad personal yo elimino la extensión .MKV del vídeo y la sustituyo con una extensión .DAT, al descomprimir el archivo .ZIP como resultado verán un archivo con extensión .DAT, entre otras cosas, este archivo es el vídeo, cambiar la extensión y colocar .MKV.

- Nota: En total son: 2 partes (1 de 001.00 GB; 1 de 726.90 MB).

- MD5 Signature .MKV: FC7ECCE3 - 5FFA6345 - EDBAC935 - 10107041

- MD5 Signature .ZIP: 0FCD940B - 2D251F64 - 109C4C97 - 50A5E11E







identi.li/wolf


Lockout [1080p][Dual][ME][Wolf]
28 Puntos Score: 7/10
Visitas: 2441 Favoritos: 1
Ver los usuarios que votaron...
7 Comentarios Lockout [1080p][Dual][ME][Wolf]
me la llevo carnal muchas gracias
L :cry:INKS CAIDOS
@lgfe1609 Brother debe ser un problema de tu conexi?
Buena peli y gran aporte. Pero tengo problemas para descargar con el JDownloader. Por favor si puedes, pon los links de otra forma. GRACIAS...
pues gracias por el aporte pero no puedo descomprimir ambos archivos ya que estoy en una mac... y no encuentro el programa los otros no funcionan
Bro consigueme los links enviamelos en un MP porfavor que no puedo utilizar el jdownloader...gracias por tu aporte tambien  
gracias, la andaba buscando
Para dejar un comentario Registrate! o.. eres ya usuario? Accede!