Psicosis 2 1983 Psycho II dvdrip latino xvid

Hola amigos de identi, anteriormente ya habia posteado esta pelicula, pero en dvd full, pero a muchos se les hicieron muchos megas para descargar, asi que hice este dvdrip en latino de 700 megas para que aprovechen y la descarguen, proximamente tambien posteare la tres en dvdrip latino, aqui esta la uno por si no la has descargado tambien en dvdrip latino http://www.identi.li/index.php?topic=195847





Título original: Psycho II
Título Latinoamérica: Psicosis II
Año: 1983
Duración: 113 minutos aprox.
País: Estados Unidos
Director: Richard Franklin
GUIÓN: Tom Holland
MÚSICA: Jerry Goldsmith
FOTOGRAFÍA: Dean Cundey
REPARTO: Anthony Perkins, Vera Miles, Meg Tilly, Robert Loggia, Dennis Franz, Hugh Gillin, Claudia Bryar, Robert Alan Browne, Ben Hartigan, Lee Garlington, Tim Maier, Jill Carroll, Chris Hendrie, Tom Holland, Michael Lomazow
PRODUCTORA: Universal Pictures
GÉNERO: Terror. Thriller. Intriga


Después de veintidós años encerrado en un psiquiátrico y, aparentemente curado, Norman Bates (Anthony Perkins) queda en libertad pese a las protestas de Lila, la hermana de Marion Crane (Vera Miles) y viuda de Sam Loomis, el antiguo novio de su hermana. Acompañado por su psiquiatra, el doctor Raymond, Norman regresa al motel Bates y se hace cargo de él. Tras hacer amistad con una joven, empiezan a ocurrir hechos extraños y crímenes inexplicables...


CAPTURAS


psycho 2.avi

Format                         : AVI
Format/Info                    : Audio Video Interleave
File size                      : 746 MiB
Duration                       : 1h 52mn
Overall bit rate               : 925 Kbps
Writing application            : VirtualDubMod 1.5.4.1 (build 2178/release)
Writing library                : VirtualDubMod build 2178/release

Video
ID                             : 0
Format                         : MPEG-4 Visual
Format profile                 : Advanced [email protected]
Format settings, BVOP          : 1
Format settings, QPel          : No
Format settings, GMC           : No warppoints
Format settings, Matrix        : Custom
Codec ID                       : XVID
Codec ID/Hint                  : XviD
Duration                       : 1h 52mn
Bit rate                       : 790 Kbps
Width                          : 720 pixels
Height                         : 384 pixels
Display aspect ratio           : 1.85:1
Frame rate                     : 23.976 fps
Color space                    : YUV
Chroma subsampling             : 4:2:0
Bit depth                      : 8 bits
Scan type                      : Progressive
Compression mode               : Lossy
Bits/(Pixel*Frame)             : 0.119
Stream size                    : 637 MiB (85%)
Writing library                : XviD 64

Audio
ID                             : 1
Format                         : MPEG Audio
Format version                 : Version 1
Format profile                 : Layer 3
Mode                           : Joint stereo
Codec ID                       : 55
Codec ID/Hint                  : MP3
Duration                       : 1h 52mn
Bit rate mode                  : Constant
Bit rate                       : 128 Kbps
Channel(s)                     : 2 channels
Sampling rate                  : 48.0 KHz
Compression mode               : Lossy
Stream size                    : 103 MiB (14%)
Alignment                      : Aligned on interleaves
Interleave, duration           : 83 ms (2.00 video frames)
Interleave, preload duration   : 504 ms
Writing library                : LAME3.98r
Encoding settings              : -m j -V 4 -q 2 -lowpass 17 -b 128
Language                       : Espanol



DESCARGA ZIPPYSHARE
 

DESCARGA BILLIONUPLOADS

 
Psicosis 2 1983 Psycho II dvdrip latino xvid
5 Puntos Score: 5/10
Visitas: 2078 Favoritos: 1
Ver los usuarios que votaron...
9 Comentarios Psicosis 2 1983 Psycho II dvdrip latino xvid
muchas gracias.  
muchas gracias.  
jeje..Gracias. y si tambi?
Gracias amigo  estaba buscando esta peli en latino...por favor tendras psicosis 3,  la 4, y el remake de 1998 en latino
seria genial para la comunidad tener toda la coleccion...
Gracias amigo buen aport  
Amigo se cayeron los links de zippy..
Pero son intercambiables?
@Lucas16I si son intercambiables  
@juanw200 Gracias por responderme amigo
Para dejar un comentario Registrate! o.. eres ya usuario? Accede!