Ciencia Traviesa (Serie Completa) (52/52)

 

Sinopsis 


Toby Johnson es un estudiante normal de la escuela Sandy Bay con los mismos problemas de la adolescencia que cualquier otro chico. Elizabeth Hawke, en cambio, es la típica alumna que quiere ser la mejor de la clase, lo que provoca el rechazo de la escuela hacia ella. 

Pero un día los dos alumnos son golpeados en el laboratorio del colegio por un rayo magnético único. Y después de esa noche, los dos se vuelven genios científicos de gran inteligencia. Este rayo hace cambiar drásticamente la personalidad de Elizabeth, usando este "don" como un arma de gran poder para controlar la escuela y a sus compañeros.


 
 
 
 



Información 

Titulo: Ciencia Traviesa (Wicked Science) 
Episodios: 52 
Idioma: Castellano 
Archivo: .mp4 
Peso: 50 mb 
Servidor: Zippyshare, Sockshare, 
Subido por: Kreatorofchaos/Grossier 
Pass: grossier




Format                           : MPEG-4
Format profile                   : Base Media
Codec ID                         : isom
File size                        : 53.9 MiB
Duration                         : 24mn 51s
Overall bit rate                 : 303 Kbps
Encoded date                     : UTC 2010-02-28 00:58:18
Tagged date                      : UTC 2010-02-28 00:58:18

Video
ID                               : 1
Format                           : AVC
Format/Info                      : Advanced Video Codec
Format profile                   : [email protected]
Format settings, CABAC           : Yes
Format settings, ReFrames        : 8 frames
Codec ID                         : avc1
Codec ID/Info                    : Advanced Video Coding
Duration                         : 24mn 51s
Bit rate mode                    : Variable
Bit rate                         : 268 Kbps
Maximum bit rate                 : 905 Kbps
Width                            : 640 pixels
Height                           : 352 pixels
Display aspect ratio             : 16:9
Frame rate mode                  : Constant
Frame rate                       : 25.000 fps
Color space                      : YUV
Chroma subsampling               : 4:2:0
Bit depth                        : 8 bits
Scan type                        : Progressive
Bits/(Pixel*Frame)               : 0.048
Stream size                      : 47.7 MiB (88%)
Writing library                  : x264 core 56 svn-676
Encoding settings                : cabac=1 / ref=5 / deblock=1:1:1 / analyse=0x3:0x133 / me=umh / subme=6 / brdo=1 / mixed_ref=1 / me_range=16 / chroma_me=1 / trellis=1 / 8x8dct=1 / cqm=0 / deadzone=21,11 / chroma_qp_offset=0 / threads=3 / nr=0 / decimate=1 / mbaff=0 / bframes=5 / b_pyramid=1 / b_adapt=1 / b_bias=0 / direct=1 / wpredb=1 / bime=1 / keyint=250 / keyint_min=25 / scenecut=40(pre) / rc=2pass / bitrate=268 / ratetol=1.0 / rceq='blurCplx^(1-qComp)' / qcomp=0.60 / qpmin=10 / qpmax=51 / qpstep=4 / cplxblur=20.0 / qblur=0.5 / ip_ratio=1.40 / pb_ratio=1.30
Encoded date                     : UTC 2010-02-28 00:58:18
Tagged date                      : UTC 2010-02-28 00:58:24

Audio
ID                               : 2
Format                           : AAC
Format/Info                      : Advanced Audio Codec
Format version                   : Version 4
Format profile                   : LC
Codec ID                         : 40
Duration                         : 24mn 51s
Bit rate mode                    : Variable
Bit rate                         : 32.0 Kbps
Maximum bit rate                 : 34.6 Kbps
Channel(s)                       : 1 channel
Channel positions                : Front: C
Sampling rate                    : 48.0 KHz
Compression mode                 : Lossy
Stream size                      : 5.69 MiB (11%)
Encoded date                     : UTC 2010-02-28 00:58:24
Tagged date                      : UTC 2010-02-28 00:58:24





LINKS


Ciencia Traviesa (Serie Completa) (52/52)
35 Puntos Score: 8.8/10
Visitas: 8691 Favoritos: 4
Ver los usuarios que votaron...
14 Comentarios Ciencia Traviesa (Serie Completa) (52/52)
Cita magnum12: Mostrar
Cita Grossier: Mostrar
hola podrias decirme que programa utilisaste ,,y te doy 10 puntos
Uff pense que estaba en latino  
No se vale, est?
Gracias Amigo gracias a ti la pude ver toda menos el capitulo 20 de la temporada 1 y recordar los viejos tiempos... Se te agradece mucho tu aporte y esfuerzo.. un 10.....
Cita Eman: Mostrar
algunas de las partes no est?
Para dejar un comentario Registrate! o.. eres ya usuario? Accede!