The Host (La Huésped) (2013) [EN][Sub]

The Host (La Huésped) (2013) [EN][Sub]

Bienvenidos a mi nuevo post.  Esta película es muy conmovedora, realmente la recomiendo.
Me tomó muchas horas arreglar los subtítulos.
Espero la disfruten.














Título: The Host (La Huésped)
Título original: The Host
País: USA 
Estreno en USA: 29/03/2013 
Estreno en España: 22/03/2013 
Productora: Chockstone Pictures, Inferno Entertainment, Nick Wechsler Productions 
Director: Andrew Niccol 
Guión: Andrew Niccol 
Reparto: Saoirse Ronan, Diane Kruger, Jake Abel, Max Irons, Frances Fisher, William Hurt, Chandler Canterbury, Boyd Holbrook, Stephen Rider, Scott Lawrence, David House, Jaylen Moore
Calificación: No recomendada para menores de 12 años

Sinopsis:

Nuestro mundo ha sido invadido por un enemigo desconocido. Los seres humanos se han convertido en huéspedes de los invasores, que se han apoderado de sus mentes manteniendo el cuerpo intacto. Casi toda la humanidad ha sucumbido a esta invasión. Cuando Melanie (Saoirse Ronan), uno de los pocos humanos «salvajes» que quedan, se ve capturada, está convencida de que ha llegado su fin. Wanderer, el «alma» invasora asignada al cuerpo de Melanie, ya está avisada de las dificultades que implica vivir dentro de un ser humano: las emociones irrefrenables, el torrente de sensaciones, los recuerdos demasiado vívidos...
Pero hay algo con lo que Wanderer no contaba: la antigua inquilina de su cuerpo se niega a cederle el control de su mente.
Cuando unas fuerzas externas obligan a Wanderer y a Melanie a aliarse, ambas emprenden una incierta y peligrosa búsqueda del hombre al que aman.



General
Unique ID                      : 208622203093400423695311954744463720138 (0x9CF32CBFB4111B8785764E56D49DFECA)
Complete name                  : The Host 2013 720p HDRip x264 AC3.mkv
Format                         : Matroska
Format version                 : Version 2
File size                      : 865 MiB
Duration                       : 2h 10mn
Overall bit rate               : 926 Kbps
Encoded date                   : UTC 2013-04-18 21:01:41
Writing application            : mkvmerge v6.1.0 ('Old Devil') built on Mar  2 2013 14:32:37
Writing library                : libebml v1.3.0 + libmatroska v1.4.0

Video
ID                             : 1
Format                         : AVC
Format/Info                    : Advanced Video Codec
Format profile                 : [email protected]
Format settings, CABAC         : Yes
Format settings, ReFrames      : 4 frames
Codec ID                       : V_MPEG4/ISO/AVC
Duration                       : 2h 10mn
Bit rate                       : 540 Kbps
Width                          : 1 280 pixels
Height                         : 528 pixels
Display aspect ratio           : 2.40:1
Frame rate mode                : Constant
Frame rate                     : 29.970 fps
Color space                    : YUV
Chroma subsampling             : 4:2:0
Bit depth                      : 8 bits
Scan type                      : Progressive
Bits/(Pixel*Frame)             : 0.027
Stream size                    : 489 MiB (57%)
Writing library                : x264 core 130 r2273 b3065e6
Encoding settings              : cabac=1 / ref=3 / deblock=1:0:0 / analyse=0x3:0x113 / me=hex / subme=7 / psy=1 / psy_rd=1.00:0.00 / mixed_ref=1 / me_range=16 / chroma_me=1 / trellis=1 / 8x8dct=1 / cqm=0 / deadzone=21,11 / fast_pskip=1 / chroma_qp_offset=-2 / threads=36 / lookahead_threads=4 / sliced_threads=0 / nr=0 / decimate=1 / interlaced=0 / bluray_compat=0 / constrained_intra=0 / bframes=3 / b_pyramid=2 / b_adapt=1 / b_bias=0 / direct=1 / weightb=1 / open_gop=0 / weightp=2 / keyint=300 / keyint_min=29 / scenecut=40 / intra_refresh=0 / rc_lookahead=40 / rc=2pass / mbtree=1 / bitrate=540 / ratetol=1.0 / qcomp=0.60 / qpmin=0 / qpmax=69 / qpstep=4 / cplxblur=20.0 / qblur=0.5 / ip_ratio=1.40 / aq=1:1.00
Default                        : Yes
Forced                         : No

Audio
ID                             : 2
Format                         : AC-3
Format/Info                    : Audio Coding 3
Mode extension                 : CM (complete main)
Format settings, Endianness    : Big
Codec ID                       : A_AC3
Duration                       : 2h 10mn
Bit rate mode                  : Constant
Bit rate                       : 384 Kbps
Channel(s)                     : 2 channels
Channel positions              : Front: L R
Sampling rate                  : 48.0 KHz
Bit depth                      : 16 bits
Compression mode               : Lossy
Stream size                    : 359 MiB (41%)
Default                        : Yes
Forced                         : No









Enlaces De Descarga


Subtitulos


The Host (La Huésped) (2013) [EN][Sub]
25 Puntos Score: 8.3/10
Visitas: 2658 Favoritos: 3
Ver los usuarios que votaron...
10 Comentarios The Host (La Huésped) (2013) [EN][Sub]
@Tony_Lp que la disfrutes, gracias por los puntos  
muy bunos los subtitulos
muchas gracias por los subtitulos  
muchas gracias por el aporte.
@agamboat de nada men...gracias a ti espero que esten bien los subs jeje  
esta pelicula no me llamaba la atencion para ir a verla al cine... asi que que mejor que verla en la comodidad de su casa.
Para dejar un comentario Registrate! o.. eres ya usuario? Accede!