The Victoria's Secret Fashion Show 2012 1080i HDTV





The Victoria's Secret Fashion Show 


Es el desfile de modas anual que la marca realiza para promover y comercializar sus productos en entornos de alto perfil. El espectáculo cuenta con algunas de las modelos más reconocidas del mundo de la moda como las actuales ángeles de Victoria's Secret: Adriana Lima, Alessandra Ambrosio, Candice Swanepoel, Doutzen Kroes, Behati Prinsloo, Erin Heatherton, Lily Aldridge, Barbara Palvin , Karlie Kloss y Lindsay Ellingson. 


El espectáculo es un fastuoso evento con elaborada ropa interior, música de diversos artistas principales, y la escenografía de acuerdo a los diferentes temas que se ejecutan en el show. El espectáculo atrae a cientos de celebridades; cuenta con intérpretes especiales y actos especiales. Cada año, de veinte a cuarenta de las mejores modelos del mundo de moda son seleccionados para caminar en el desfile de moda. En un año típico, esto incluye alrededor de una media docena de mujeres bajo contrato con la empresa, conocidas como ángeles de Victoria's Secret, que ayudan a difundir el evento. 


Para realzar aún más el evento, cada año, la prestigiosa marca crea un sostén conocido como Fantasy Bra. Este sostén esta hecho de joyas preciosas o las tiene incrustadas. Fue primera vez presentado en el catálogo de navidad de la marca en 1996, pero desde el 2001 es usado por una de los ángeles de la casa durante el show. 


Datos Técnicos: 


----------------------------------------------------------------------------------- 

The Victoria's Secret Fashion Show 2012 1080i HDTV MPEG2 AC3 5.1 

----------------------------------------------------------------------------------- 


Format : MPEG-TS 

File size : 5.00 GiB 

Duration : 43mn 28s 

Overall bit rate mode : Variable 

Overall bit rate : 16.5 Mbps 


----------------------------------------------------------------------------------- 

Video 

----------------------------------------------------------------------------------- 

Format : MPEG Video 

Duration : 43mn 28s 

Bit rate mode : Variable 

Bit rate : 15.3 Mbps 

Maximum bit rate : 38.8 Mbps 

Width : 1 920 pixels 

Height : 1 080 pixels 

Display aspect ratio : 16:9 

Frame rate : 29.970 fps 

Standard : Component 

Color space : YUV 

Chroma subsampling : 4:2:0 

Bit depth : 8 bits 

Scan type : Interlaced 

Scan order : Top Field First 

Compression mode : Lossy 

Bits/(Pixel*Frame) : 0.245 

Stream size : 4.63 GiB (93%) 

----------------------------------------------------------------------------------- 

Audio 

----------------------------------------------------------------------------------- 

Format : AC-3 

Duration : 43mn 28s 

Bit rate mode : Constant 

Bit rate : 384 Kbps 

Channel(s) : 6 channels 

Channel positions : Front: L C R, Side: L R, LFE 

Sampling rate : 48.0 KHz 

Bit depth : 16 bits 

Compression mode : Lossy 

Stream size : 119 MiB (2%) 

Language : English 

















The Victoria's Secret Fashion Show 2012 1080i HDTV
20 Puntos Score: 10/10
Visitas: 3252 Favoritos: 7
Ver los usuarios que votaron...
11 Comentarios The Victoria's Secret Fashion Show 2012 1080i HDTV
Esta espectacular!!! gracias compa, sigue as?
No tienes el del 2011 donde sale MAroon 5??
amigo subiras los demas desfiles?
Para dejar un comentario Registrate! o.. eres ya usuario? Accede!