Infected 2013 [EN][Sub][Mega]

Infected 2013 [EN][Sub][Mega]














Un virus sanguíneo infecta un pequeño grupo de cazadores convirtiendo el viaje padre-hijo  en una batalla por la supervivencia.

Director: Glenn Ciano
Escritores: Glenn Ciano , Glenn Ciano 
Elenco: Michael Madsen, Christy Romano, William Forsythe


General
Complete name                  : iguana-inf.xvid.avi
Format                         : AVI
Format/Info                    : Audio Video Interleave
File size                      : 697 MiB
Duration                       : 1h 34mn
Overall bit rate mode          : Variable
Overall bit rate               : 1 026 Kbps
Writing application            : VirtualDubMod 1.5.10.2 (build 2540/release)
Writing library                : VirtualDubMod build 2540/release

Video
ID                             : 0
Format                         : MPEG-4 Visual
Format profile                 : Advanced [email protected]
Format settings, BVOP          : 2
Format settings, QPel          : No
Format settings, GMC           : No warppoints
Format settings, Matrix        : Default (H.263)
Muxing mode                    : Packed bitstream
Codec ID                       : XVID
Codec ID/Hint                  : XviD
Duration                       : 1h 34mn
Bit rate                       : 816 Kbps
Width                          : 624 pixels
Height                         : 352 pixels
Display aspect ratio           : 16:9
Frame rate                     : 23.976 fps
Color space                    : YUV
Chroma subsampling             : 4:2:0
Bit depth                      : 8 bits
Scan type                      : Progressive
Compression mode               : Lossy
Bits/(Pixel*Frame)             : 0.155
Stream size                    : 555 MiB (80%)
Writing library                : XviD 64

Audio
ID                             : 1
Format                         : MPEG Audio
Format version                 : Version 1
Format profile                 : Layer 3
Mode                           : Joint stereo
Codec ID                       : 55
Codec ID/Hint                  : MP3
Duration                       : 1h 34mn
Bit rate mode                  : Variable
Bit rate                       : 192 Kbps
Channel(s)                     : 2 channels
Sampling rate                  : 48.0 KHz
Compression mode               : Lossy
Stream size                    : 134 MiB (19%)
Alignment                      : Aligned on interleaves
Interleave, duration           : 24 ms (0.58 video frame)
Interleave, preload duration   : 93 ms
Writing library                : LAME3.90.
Encoding settings              : -m j -V 4 -q 2 -lowpass 19.6 --abr 192









Enlaces De Descarga

Subtitulos


Infected 2013 [EN][Sub][Mega]
3 Puntos Score: 1.5/10
Visitas: 2658 Favoritos: 6
Ver los usuarios que votaron...
6 Comentarios Infected 2013 [EN][Sub][Mega]
hola amigo algo pasa con los linck no c abre  
@cyber_men que link no te abre?
ya todo bien gracias pana  
Escritores: Glenn Ciano , Glenn Ciano : esta clonado
Para dejar un comentario Registrate! o.. eres ya usuario? Accede!