Psicosis (Psycho 1960) español latino xvid


Psycho titulada psicosis en español es una pelicula de 1960 dirigida por Alfred hitchcock. La pelicula se ha convertido en un clasico del cine de terror. Inicialmente la pelicula recibio comentarios mixtos ,pero en una revision  ,motivo opiniones muy positivas  que dieron lugar a 4 noninaciones a los premios oscar. Conciderada hoy como una de las mejores peliculas de hitchcock elogiada como una obra de arte cinematografica.

Formato: avi
Tamaño:
 700 MIB
Duración: 1h 48min
Resolucion:
 720x416
Audio 1: mp3 español latino
Links:
 7 links de 100 MIB 


Format                                   : AVI
Format/Info                              : Audio Video Interleave
File size                                : 700 MiB
Duration                                 : 1h 48mn
Overall bit rate                         : 899 Kbps
Writing application                      : VirtualDubMod 1.5.4.1 (build 2178/release)
Writing library                          : VirtualDubMod build 2178/release

Video
ID                                       : 0
Format                                   : MPEG-4 Visual
Format profile                           : Advanced [email protected]
Format settings, BVOP                    : 1
Format settings, QPel                    : No
Format settings, GMC                     : No warppoints
Format settings, Matrix                  : Custom
Codec ID                                 : XVID
Codec ID/Hint                            : XviD
Duration                                 : 1h 48mn
Bit rate                                 : 762 Kbps
Width                                    : 720 pixels
Height                                   : 416 pixels
Display aspect ratio                     : 1.731
Frame rate                               : 29.970 fps
Color space                              : YUV
Chroma subsampling                       : 4:2:0
Bit depth                                : 8 bits
Scan type                                : Progressive
Compression mode                         : Lossy
Bits/(Pixel*Frame)                       : 0.085
Stream size                              : 593 MiB (85%)
Writing library                          : XviD 64

Audio
ID                                       : 1
Format                                   : MPEG Audio
Format version                           : Version 1
Format profile                           : Layer 3
Mode                                     : Joint stereo
Codec ID                                 : 55
Codec ID/Hint                            : MP3
Duration                                 : 1h 48mn
Bit rate mode                            : Constant
Bit rate                                 : 128 Kbps
Channel(s)                               : 2 channels
Sampling rate                            : 48.0 KHz
Compression mode                         : Lossy
Stream size                              : 99.7 MiB (14%)
Alignment                                : Aligned on interleaves
Interleave, duration                     : 67 ms (2.00 video frames)
Interleave, preload duration             : 504 ms
Writing library                          : LAME3.98r
Encoding settings                        : -m j -V 4 -q 2 -lowpass 17 -b 128
Language                                 : Espanol latino

capturas



BILLIONUPLOADS
 


ZIPPYSHARE



deja tu comentarioooooooooooooooooooooooooooooooooooooo



Psicosis (Psycho 1960) español latino xvid
58 Puntos Score: 9.7/10
Visitas: 8577 Favoritos: 8
Ver los usuarios que votaron...
29 Comentarios Psicosis (Psycho 1960) español latino xvid
700 MEGAS? & en Latino? me lo llevo sin pensarlo 2 veces!
Arigato juanw200 por subir la pelicula!
la obra maestra de Alfred hitchcock, me la llevo t te dejo 10pts
buena.... necesitaba solo el audio, gracias y de aqui lo sacar?
esta pelicula es dificil de encontrar en latino   la voy a descargar, gracias.  
he querido ver esta peli  
que buen post kapo  , tengo una duda , es que en space vi una de psicosis que no es esta es una mas nueva a?
@firemedia sera esta la que viste

y aqui ay otras http://terrorfantastico.com/foro/index.php?topic=2311.0 ay varias pero esta fue la primera de todas
@juanw200 muchas gracias por esta gran pelicula y si esta en audio latino.  
Gracias, gracias, gracias, amigo. Hace tiempo que la buscaba en latino. Gracias, gracias, gracias.
POR FIN !!!!!!!!
EN LATINO CONSHRE!!
GRACIAS HERMANO!!!!!!!!!!!!!!!!
Bien!!!! en latino y en buena calidad eres un crack gracias por compartir!!
@kazuma01 @davenger @duderino gracias por pasar y comentar  
@juanw200 por esas casualidad en DVD FULL la tienes?
Muchas gracias , ojala aparezca en dvd full , para la coleccion. Agradezco mucho tu aporte ya no me quede con las ganas de verla en latino.
por favor que los enlaces continuen con vida,
puntitos favoritos y recomendada master!
Los archivos de Zippyshare ya no sirven, pero los de Billonupload si.
Voy a descargar la pel, as?
@HoWLinG87 no te [email protected] los archivos los tengo en sky drive y los puedo remotear en segundos a cualquiera de los 2 host
@HoWLinG87 ya puse nuevos links de zippyshare, si te sirven @cesilop
buenisima pelicula!
EXCELENTEEEEEEEEEEEEEEEE.....BAJADA Y DISFRUTANDO,,,,MUCHAS GRACIASSSSSSSSSSSSSSSSSSS.
gracias enserio la queria en  
Gracias por subirla a ZippyShare es de lo mejor. Muy buen aporte. Saludos!
gracias amigo estoy bajando de ambos  : zippy y de billions , espero no tener problemas , este es una joya del cine  
descargando gracias  
Para dejar un comentario Registrate! o.. eres ya usuario? Accede!