Robots DVDRip (Spa?ol latino) mediafire

 


SINOPSIS:
Una familia de robots demuestra su "humanidad". Rodney (Ewan McGregor) es un joven genio inventor que sueña con hacer del mundo un sitio mejor; Cappy (Halle Berry) es una guapa y sexy ejecutiva; Ratchet es un tirano que se enfrenta continuamente a Rodney; y Big Weld (Mel Brooks) es un inventor que ha perdido la cabeza.



General
Format                 : AVI
Format/Info              : Audio Video Interleave
File size                : 1.07 GiB
Duration               : 1h 29mn
Overall bit rate           : 1 704 Kbps

Video
Format                 : MPEG-4 Visual
Format profile             : [email protected]
Format settings, Matrix      : Default (H.263)
Codec ID               : XVID
Codec ID/Hint            : XviD
Duration               : 1h 29mn
Bit rate               : 1 499 Kbps
Width                  : 720 pixels
Height                 : 480 pixels
Display aspect ratio         : 3:2
Frame rate               : 30.000 fps
Standard               : NTSC
Color space              : YUV
Chroma subsampling         : 4:2:0
Bit depth                : 8 bits
Scan type                : Progressive
Bits/(Pixel*Frame)         : 0.145
Stream size              : 962 MiB (88%)
Writing library            : XviD 1.2.1 (UTC 2008-12-04)

Audio
ID                   : 1
Format                 : MPEG Audio
Format version             : Version 1
Format profile             : Layer 3
Mode                   : Joint stereo
Mode extension             : MS Stereo
Codec ID               : 55
Codec ID/Hint            : MP3
Duration               : 1h 29mn
Bit rate mode            : Constant
Bit rate               : 192 Kbps
Channel(s)               : 2 channels
Sampling rate            : 44.1 KHz
Stream size              : 123 MiB (11%)


caps:



Audio: Latino
Tipo:   DVDRip
Size:   1.06GB
no pass



si el enlace no funciona favor avisar!
Robots DVDRip (Spa?ol latino) mediafire
9 Puntos Score: 9/10
Visitas: 2330 Favoritos: 1
Ver los usuarios que votaron...
8 Comentarios Robots DVDRip (Spa?ol latino) mediafire
error al descomprimir, ya intente de todo y nadaaaaaaaaa
@capu2008
probasta unir con hjsplit o 7zip?
ya intente y nada. revisa xfavor si no es molestia.
Cita neofidodido: Mostrar
esa pelicula esta da?
tambien con el mismo problema la parte 10parece que no esta completa
chale tanto para nada, no funciona
borren este post de mierda
El archivo se une y todo perfecto, el problema sale ya al querer descomprimir "Robots.zip" sale un error CRC archivo da?
Para dejar un comentario Registrate! o.. eres ya usuario? Accede!