Saw Saga completa 7/7 [Brrip][EN][Subs][Mega]

Saga Saw completa 7/7 [Brrip][EN][Subs][Mega]














Título: Saw
Título original: Saw
País: Usa 
Estreno en USA: 29/10/2004 
Estreno en España: 18/03/2005 
Estreno en Blu-ray: 19/05/2010 
Productora: Lions Gate Films 
Director: James Wan 
Guión: James Wan, Leigh Whannell 
Reparto: Tobin Bell, Cary Elwes, Danny Glover, Ken Leung, Dina Meyer, Monica Potter, Shawnee Smith, Leigh Whannell 

Sinopsis:

Thriller de terror protagonizada por Cary Elwes, Danny Glover y Dina Meyer entre otros. La cosa es que la policía está siguiendo a un asesino apodado Jigsaw (rompecabezas) y según parece la película empieza con dos hombres encerrados y encadenados en un apestoso baño con las luces apagadas. Al encenderse las luces se ve que a parte de esas dos personas hay un tercer hombre muerto de un tiro en la cabeza con una pistola en la mano y una cinta de video en la otra. La cosa es que uno de ellos debe cargarse al otro antes de una hora determinada si no quiere ver morir a su familia. Y eso es sólo el principio.









General
Complete name                  : Saw.2004.BRRip.XviD.AC3.RoSubbed-playXD.avi
Format                         : AVI
Format/Info                    : Audio Video Interleave
File size                      : 1.37 GiB
Duration                       : 1h 42mn
Overall bit rate               : 1 902 Kbps

Video
ID                             : 0
Format                         : MPEG-4 Visual
Format profile                 : Advanced [email protected]
Format settings, BVOP          : 2
Format settings, QPel          : No
Format settings, GMC           : No warppoints
Format settings, Matrix        : Default (H.263)
Codec ID                       : XVID
Codec ID/Hint                  : XviD
Duration                       : 1h 42mn
Bit rate                       : 1 511 Kbps
Width                          : 720 pixels
Height                         : 400 pixels
Display aspect ratio           : 16:9
Frame rate                     : 23.976 fps
Color space                    : YUV
Chroma subsampling             : 4:2:0
Bit depth                      : 8 bits
Scan type                      : Progressive
Compression mode               : Lossy
Bits/(Pixel*Frame)             : 0.219
Stream size                    : 1.08 GiB (79%)
Writing library                : XviD 1.2.1 (UTC 2008-12-04)

Audio
ID                             : 1
Format                         : AC-3
Format/Info                    : Audio Coding 3
Mode extension                 : CM (complete main)
Format settings, Endianness    : Big
Codec ID                       : 2000
Duration                       : 1h 42mn
Bit rate mode                  : Constant
Bit rate                       : 384 Kbps
Channel(s)                     : 6 channels
Channel positions              : Front: L C R, Side: L R, LFE
Sampling rate                  : 48.0 KHz
Bit depth                      : 16 bits
Compression mode               : Lossy
Stream size                    : 282 MiB (20%)
Alignment                      : Aligned on interleaves
Interleave, duration           : 64 ms (1.53 video frames)
Interleave, preload duration   : 192 ms
Title                          : SAW I 2004 DC Blu-ray 720p x264-playHD - [1] English_new









Enlaces De Descarga











Título: Saw II
Título original: Saw II
País: Usa 
Estreno en USA: 28/10/2005 
Estreno en España: 02/12/2005 
Estreno en Blu-ray: 19/05/2010 
Productora: Lions Gate Films 
Director: Darren Lynn Bousman 
Guión: Darren Lynn Bousman 
Reparto: Donnie Wahlberg, Shawnee Smith, Tobin Bell, Franky G., Glenn Plummer, Dina Meyer, Emmanuael Vaugier, Beverley Mitchell, Eric Knudsen 

Sinopsis:

El teniente Eric Mason, logra capturar al asesino y tiene que tratar de detener el último juego que éste ha puesto en marcha. El juego incluye una casa donde los "afortunados" participantes están prisioneros en su interior y son obligados a matarse unos a otros mientras que una red de videocamaras lo graba todo. Lo que Mason no sabe es que ese juego se está realizando frente a sus propias narices sin él saberlo.









General
Complete name                  : Saw.II.2005.BRRip.XviD.AC3.RoSubbed-playXD.avi
Format                         : AVI
Format/Info                    : Audio Video Interleave
File size                      : 1.37 GiB
Duration                       : 1h 34mn
Overall bit rate               : 2 069 Kbps

Video
ID                             : 0
Format                         : MPEG-4 Visual
Format profile                 : Advanced [email protected]
Format settings, BVOP          : 2
Format settings, QPel          : No
Format settings, GMC           : No warppoints
Format settings, Matrix        : Default (H.263)
Codec ID                       : XVID
Codec ID/Hint                  : XviD
Duration                       : 1h 34mn
Bit rate                       : 1 677 Kbps
Width                          : 720 pixels
Height                         : 400 pixels
Display aspect ratio           : 16:9
Frame rate                     : 23.976 fps
Color space                    : YUV
Chroma subsampling             : 4:2:0
Bit depth                      : 8 bits
Scan type                      : Progressive
Compression mode               : Lossy
Bits/(Pixel*Frame)             : 0.243
Stream size                    : 1.11 GiB (81%)
Writing library                : XviD 1.2.1 (UTC 2008-12-04)

Audio
ID                             : 1
Format                         : AC-3
Format/Info                    : Audio Coding 3
Mode extension                 : CM (complete main)
Format settings, Endianness    : Big
Codec ID                       : 2000
Duration                       : 1h 34mn
Bit rate mode                  : Constant
Bit rate                       : 384 Kbps
Channel(s)                     : 6 channels
Channel positions              : Front: L C R, Side: L R, LFE
Sampling rate                  : 48.0 KHz
Bit depth                      : 16 bits
Compression mode               : Lossy
Stream size                    : 260 MiB (19%)
Alignment                      : Aligned on interleaves
Interleave, duration           : 64 ms (1.53 video frames)
Interleave, preload duration   : 192 ms
Title                          : SAW II 2005 Unrated Blu-ray 720p x264-playHD - [1] English_new







Enlaces De Descarga











Título: Saw III
Título original: Saw III
País: EEUU 
Estreno en USA: 27/10/2006 
Estreno en España: 10/11/2006 
Lanzamiento en DVD (alquiler): 25/07/2007 
Estreno en DVD (venta): 10/10/2007 
Productora: Lionsgate 
Director: Darren Lynn Bousman 
Guión: Leigh Whannell 
Reparto: Tobin Bell, Shawnee Smith, Angus MacFadyen, Bahar Soomekh, Dina Meyer

Sinopsis:

Jigsaw ha desaparecido. Con su nueva aprendiz Amanda aterrorizando a la comunidad y desorientando a la policía, todos buscan a la doctora Lynn Denlon (Bahar Soomekh), que no saba que será la pieza final del juego mortal. Lynn será llevada a un edificio abandonado en el cual se encontrará con Jigsaw (Tobin Bell), al borde la muerte. Lynn tiene la orden, si quiere sobrevivir, de procurar que Jigsaw sobreviva, así como ocuparse de Jeff (Angus Macfayden), otra de sus víctimas, y completar otro juego mortal. Lynn y Jeff lucharán contra el tiempo que le queda a Jigsaw y serán testigos del auténtico terror. El juego comienza de nuevo...








General
Complete name                  : Saw.III.2006.BRRip.XviD.AC3.RoSubbed-playXD.avi
Format                         : AVI
Format/Info                    : Audio Video Interleave
File size                      : 1.37 GiB
Duration                       : 1h 53mn
Overall bit rate               : 1 721 Kbps

Video
ID                             : 0
Format                         : MPEG-4 Visual
Format profile                 : Advanced [email protected]
Format settings, BVOP          : 2
Format settings, QPel          : No
Format settings, GMC           : No warppoints
Format settings, Matrix        : Default (H.263)
Codec ID                       : XVID
Codec ID/Hint                  : XviD
Duration                       : 1h 53mn
Bit rate                       : 1 329 Kbps
Width                          : 720 pixels
Height                         : 400 pixels
Display aspect ratio           : 16:9
Frame rate                     : 23.976 fps
Color space                    : YUV
Chroma subsampling             : 4:2:0
Bit depth                      : 8 bits
Scan type                      : Progressive
Compression mode               : Lossy
Bits/(Pixel*Frame)             : 0.192
Stream size                    : 1.06 GiB (77%)
Writing library                : XviD 1.2.1 (UTC 2008-12-04)

Audio
ID                             : 1
Format                         : AC-3
Format/Info                    : Audio Coding 3
Mode extension                 : CM (complete main)
Format settings, Endianness    : Big
Codec ID                       : 2000
Duration                       : 1h 53mn
Bit rate mode                  : Constant
Bit rate                       : 384 Kbps
Channel(s)                     : 6 channels
Channel positions              : Front: L C R, Side: L R, LFE
Sampling rate                  : 48.0 KHz
Bit depth                      : 16 bits
Compression mode               : Lossy
Stream size                    : 312 MiB (22%)
Alignment                      : Aligned on interleaves
Interleave, duration           : 64 ms (1.53 video frames)
Interleave, preload duration   : 192 ms
Title                          : SAW III 2006 Unrated Blu-ray 720p x264-playHD - [1] English_new







Enlaces De Descarga












Título: Saw IV
Título original: Saw IV
País: USA 
Estreno en USA: 26/10/2007 
Estreno en España: 26/10/2007 
Lanzamiento en DVD (alquiler): 04/06/2008 
Estreno en DVD (venta): 16/07/2008 
Productora: Lionsgate 
Director: Darren Lynn Bousman 
Guión: Marcus Dunstan, Patrick Melton 
Reparto: Tobin Bell, Angus Macfadyen, Shawnee Smith, Lyriq Bent, Scott Patterson, Justin Louis

Sinopsis:

Jigsaw y su aprendiz Amanda están muertos. Ahora, luego de hacerse público el asesinato de la detective Kerry, dos agentes del FBI, el Agente Strahn y el Agente Pérez, llegan a la aterrorizada comunidad para ayudar al veterano detective Hoffman a examinar minuciosamente los restos grisáceos que quedaron de Jigsaw, y así resolver el rompecabezas. Sin embargo, cuando el Comandante Rigg, perteneciente a la brigada especial SWAT, es secuestrado y empujado dentro del juego, contará con tan solo noventa minutos para triunfar en una serie de trampas dementes y salvar a un viejo amigo o enfrentar las consecuencias mortales...









General
Complete name                  : Saw.IV.2007.BRRip.XviD.AC3.RoSubbed-playXD.avi
Format                         : AVI
Format/Info                    : Audio Video Interleave
File size                      : 1.37 GiB
Duration                       : 1h 33mn
Overall bit rate               : 2 089 Kbps

Video
ID                             : 0
Format                         : MPEG-4 Visual
Format profile                 : Advanced [email protected]
Format settings, BVOP          : 2
Format settings, QPel          : No
Format settings, GMC           : No warppoints
Format settings, Matrix        : Default (H.263)
Codec ID                       : XVID
Codec ID/Hint                  : XviD
Duration                       : 1h 33mn
Bit rate                       : 1 698 Kbps
Width                          : 720 pixels
Height                         : 400 pixels
Display aspect ratio           : 16:9
Frame rate                     : 23.976 fps
Color space                    : YUV
Chroma subsampling             : 4:2:0
Bit depth                      : 8 bits
Scan type                      : Progressive
Compression mode               : Lossy
Bits/(Pixel*Frame)             : 0.246
Stream size                    : 1.11 GiB (81%)
Writing library                : XviD 1.2.1 (UTC 2008-12-04)

Audio
ID                             : 1
Format                         : AC-3
Format/Info                    : Audio Coding 3
Mode extension                 : CM (complete main)
Format settings, Endianness    : Big
Codec ID                       : 2000
Duration                       : 1h 33mn
Bit rate mode                  : Constant
Bit rate                       : 384 Kbps
Channel(s)                     : 6 channels
Channel positions              : Front: L C R, Side: L R, LFE
Sampling rate                  : 48.0 KHz
Bit depth                      : 16 bits
Compression mode               : Lossy
Stream size                    : 257 MiB (18%)
Alignment                      : Aligned on interleaves
Interleave, duration           : 64 ms (1.53 video frames)
Interleave, preload duration   : 192 ms
Title                          : SAW IV 2007 Unrated DC Blu-ray 720p x264-playHD - [1] English_new







Enlaces De Descarga










Título: Saw V
Título original: Saw V
País: USA 
Estreno en USA: 24/10/2008 
Estreno en España: 14/11/2008 
Lanzamiento en DVD (alquiler): 25/03/2009 
Estreno en DVD (venta): 06/05/2009 
Productora: Lionsgate 
Director: David Hackl 
Guión: Patrick Melton, Marcus Dunstan 
Reparto: Tobin Bell, Costas Mandylor, Scott Patterson, Betsy Russell, Mark Rolston, Carlo Rota, Julie Benz, Greg Bryk, Laura Gordon, Meagan Good 

Sinopsis:

Quinta entrega de la saga de terror sobre Jigsaw, el asesino del puzzle.
Hoffman (Costas Mandylor) es aparentemente la última persona viva que puede seguir adelante con el legado de Jigsaw (Tobin Bell). Pero cuando su secreto se ve amenazado, Hoffamn no tiene más remedio que ir a la caza de cualquier cabo suelto.











General
Complete name                  : Saw.V.2008.BRRip.XviD.AC3.RoSubbed-playXD.avi
Format                         : AVI
Format/Info                    : Audio Video Interleave
File size                      : 1.37 GiB
Duration                       : 1h 35mn
Overall bit rate               : 2 057 Kbps

Video
ID                             : 0
Format                         : MPEG-4 Visual
Format profile                 : Advanced [email protected]
Format settings, BVOP          : 2
Format settings, QPel          : No
Format settings, GMC           : No warppoints
Format settings, Matrix        : Default (H.263)
Codec ID                       : XVID
Codec ID/Hint                  : XviD
Duration                       : 1h 35mn
Bit rate                       : 1 665 Kbps
Width                          : 720 pixels
Height                         : 400 pixels
Display aspect ratio           : 16:9
Frame rate                     : 23.976 fps
Color space                    : YUV
Chroma subsampling             : 4:2:0
Bit depth                      : 8 bits
Scan type                      : Progressive
Compression mode               : Lossy
Bits/(Pixel*Frame)             : 0.241
Stream size                    : 1.11 GiB (81%)
Writing library                : XviD 1.2.1 (UTC 2008-12-04)

Audio
ID                             : 1
Format                         : AC-3
Format/Info                    : Audio Coding 3
Mode extension                 : CM (complete main)
Format settings, Endianness    : Big
Codec ID                       : 2000
Duration                       : 1h 35mn
Bit rate mode                  : Constant
Bit rate                       : 384 Kbps
Channel(s)                     : 6 channels
Channel positions              : Front: L C R, Side: L R, LFE
Sampling rate                  : 48.0 KHz
Bit depth                      : 16 bits
Compression mode               : Lossy
Stream size                    : 261 MiB (19%)
Alignment                      : Aligned on interleaves
Interleave, duration           : 64 ms (1.53 video frames)
Interleave, preload duration   : 192 ms
Title                          : SAW V 2008 Unrated DC Blu-ray 720p x264-playHD - [1] English_new









Enlaces De Descarga










Título: Saw VI
Título original: Saw VI
País: USA
Estreno en USA: 23/10/2009
Estreno en España: 08/10/2010
Lanzamiento en DVD (alquiler): 26/01/2011
Estreno en DVD (venta): 16/03/2011
Edición Especial DVD: 16/03/2011
Estreno en Blu-ray: 16/03/2011
Productora: Lionsgate
Director: Kevin Greutert
Guión: Patrick Melton & Marcus Dunstan
Reparto: Costas Mandylor, Mark Rolston, Betsy Russell, Tobin Bell, Shawnee Smith, Peter Outerbridge
Calificación: No recomendada para menores de 16 años

Sinopsis:

El agente especial Strahm está muerto, y el detective Hoffman (Costas Mandylor) se ha erigido como único heredero del legado de Jigsaw (Tobin Bell). Sin embargo, cuando el FBI estrecha el círculo en torno a él, Hoffman se ve obligado a poner en marcha un juego con el que el gran plan de Jigsaw cobrará todo su sentido.










General
Complete name                  : Saw.VI.2009.BRRip.XviD.AC3.RoSubbed-playXD.avi
Format                         : AVI
Format/Info                    : Audio Video Interleave
File size                      : 1.37 GiB
Duration                       : 1h 31mn
Overall bit rate               : 2 134 Kbps

Video
ID                             : 0
Format                         : MPEG-4 Visual
Format profile                 : Advanced [email protected]
Format settings, BVOP          : 2
Format settings, QPel          : No
Format settings, GMC           : No warppoints
Format settings, Matrix        : Default (H.263)
Codec ID                       : XVID
Codec ID/Hint                  : XviD
Duration                       : 1h 31mn
Bit rate                       : 1 742 Kbps
Width                          : 720 pixels
Height                         : 400 pixels
Display aspect ratio           : 16:9
Frame rate                     : 23.976 fps
Color space                    : YUV
Chroma subsampling             : 4:2:0
Bit depth                      : 8 bits
Scan type                      : Progressive
Compression mode               : Lossy
Bits/(Pixel*Frame)             : 0.252
Stream size                    : 1.12 GiB (82%)
Writing library                : XviD 1.2.1 (UTC 2008-12-04)

Audio
ID                             : 1
Format                         : AC-3
Format/Info                    : Audio Coding 3
Mode extension                 : CM (complete main)
Format settings, Endianness    : Big
Codec ID                       : 2000
Duration                       : 1h 31mn
Bit rate mode                  : Constant
Bit rate                       : 384 Kbps
Channel(s)                     : 6 channels
Channel positions              : Front: L C R, Side: L R, LFE
Sampling rate                  : 48.0 KHz
Bit depth                      : 16 bits
Compression mode               : Lossy
Stream size                    : 252 MiB (18%)
Alignment                      : Aligned on interleaves
Interleave, duration           : 64 ms (1.53 video frames)
Interleave, preload duration   : 192 ms
Title                          : SAW VI 2009 Unrated DC Blu-ray 720p x264-playHD - [1] English_new









Enlaces De Descarga











Título: Saw VII - 3D
Título original: Saw 3D
País: USA 
Estreno en USA: 29/10/2010 
Estreno en España: 16/02/2011 
Lanzamiento en DVD (alquiler): 29/06/2011 
Productora: Lionsgate 
Director: Kevin Greutert 
Guión: Marcus Dunstan, Patrick Melton 
Reparto: Tobin Bell, Costas Mandylor, Betsy Russell, Dean Armstrong, Chad Donella, Sean Patrick Flanery, Gina Holden, Chester Bennington, Naomi Snieckus, Cary Elwes, Laurence Anthony, Rebecca Marshall, James Van Patten
Calificación: No recomendada para menores de 16 Años

Sinopsis:

Mientras una mortal batalla explota sobre el brutal legado de Jigsaw, un grupo de supervivientes buscan el apoyo del guru de la auto-ayuda y sobreviviente Bobby Dagen, un hombre que con sus propios oscuros secretos provocara una nueva ola de terror...











General
Complete name                  : Saw.VII.2010.BRRip.XviD.AC3.RoSubbed-playXD.avi
Format                         : AVI
Format/Info                    : Audio Video Interleave
File size                      : 1.37 GiB
Duration                       : 1h 30mn
Overall bit rate               : 2 173 Kbps

Video
ID                             : 0
Format                         : MPEG-4 Visual
Format profile                 : Advanced [email protected]
Format settings, BVOP          : 2
Format settings, QPel          : No
Format settings, GMC           : No warppoints
Format settings, Matrix        : Default (H.263)
Codec ID                       : XVID
Codec ID/Hint                  : XviD
Duration                       : 1h 30mn
Bit rate                       : 1 781 Kbps
Width                          : 720 pixels
Height                         : 400 pixels
Display aspect ratio           : 16:9
Frame rate                     : 23.976 fps
Color space                    : YUV
Chroma subsampling             : 4:2:0
Bit depth                      : 8 bits
Scan type                      : Progressive
Compression mode               : Lossy
Bits/(Pixel*Frame)             : 0.258
Stream size                    : 1.12 GiB (82%)
Writing library                : XviD 1.2.1 (UTC 2008-12-04)

Audio
ID                             : 1
Format                         : AC-3
Format/Info                    : Audio Coding 3
Mode extension                 : CM (complete main)
Format settings, Endianness    : Big
Codec ID                       : 2000
Duration                       : 1h 30mn
Bit rate mode                  : Constant
Bit rate                       : 384 Kbps
Channel(s)                     : 6 channels
Channel positions              : Front: L C R, Side: L R, LFE
Sampling rate                  : 48.0 KHz
Bit depth                      : 16 bits
Compression mode               : Lossy
Stream size                    : 247 MiB (18%)
Alignment                      : Aligned on interleaves
Interleave, duration           : 64 ms (1.53 video frames)
Interleave, preload duration   : 192 ms
Title                          : Saw.track_2








Enlaces De Descarga





Saw Saga completa 7/7 [Brrip][EN][Subs][Mega]
12 Puntos Score: 6/10
Visitas: 3959 Favoritos: 1
Ver los usuarios que votaron...
7 Comentarios Saw Saga completa 7/7 [Brrip][EN][Subs][Mega]
BUEN APORTE  
buena saga, gracias amigo  
Excelente!! Muchas Gracias .
Que tal amigo, podrias resubir estas exelentes peliculas, grasias  
@TeenWolf amigo el problema es que me borraron la cuenta de mega...  Por ahora tendre que publicar en sharebeast y darme tiempo...
muy bien esperar?
Para dejar un comentario Registrate! o.. eres ya usuario? Accede!