Cleaner [DvdRip]




SINOPSIS:
Si alguien muere en tu casa, la policía se lleva el cuerpo; casi todo el mundo sabe eso? pero son pocos los que reparan en que la limpieza de todo el desastre corre de tu cuenta. La mayoría no tienen arrestos para afrontar algo así, por lo que recurren a Tom Cutler (Samuel L. Jackson). Tom es lo que se denomina un ?limpiador,? un hombre que no deja el más pequeño trazo de sangre, olor, o mancha, pero por encima de todo, Tom se considera el hombre que elimina toda aflicción mediante la supresión de todo cuanto puede ser susceptible de recordar la tragedia. Lentamente. Metódicamente. Concienzudamente. Cuando Tom Cutler es tu limpiador, ten la certeza de que no va a quedar nada. Cuando recibe el encargo de limpiar la escena de un crimen brutal y sangriento acaecido en un barrio de clase alta, lo encara con la habitual actitud del trabajo rutinario. Hasta que Tom se da cuenta de que en ningún momento se ha comunicado a la policía el asesinato y de que lo que en realidad ha hecho es eliminar toda evidencia del mismo. La mujer que vive en la casa, la Sra. Ann Norcut (Eva Mendes), no tiene ni idea de que se haya cometido asesinato alguno entre las paredes de su hogar, sin embargo, lo que sí sabe es que su marido ha desaparecido.

Ficha Tecnica

General
Format                 : AVI
Format/Info              : Audio Video Interleave
File size                : 1.06 GiB
Duration               : 1h 28mn
Overall bit rate           : 1 704 Kbps

Video
Format                 : MPEG-4 Visual
Format settings, Matrix      : Default (H.263)
Codec ID               : XVID
Codec ID/Hint            : XviD
Bit rate               : 1 499 Kbps
Width                  : 720 pixels
Height                 : 480 pixels
Display aspect ratio         : 3:2
Frame rate               : 30.000 fps
Standard               : NTSC
Color space              : YUV
Chroma subsampling         : 4:2:0
Bit depth                : 8 bits
Scan type                : Progressive
Bits/(Pixel*Frame)         : 0.145
Stream size              : 953 MiB (88%)
Writing library            : XviD 1.2.1 (UTC 2008-12-04)

Audio
ID                   : 1
Format                 : MPEG Audio
Format version             : Version 1
Format profile             : Layer 3
Mode                   : Joint stereo
Mode extension             : MS Stereo
Codec ID               : 55
Codec ID/Hint            : MP3
Bit rate mode            : Constant
Bit rate               : 192 Kbps
Channel(s)               : 2 channels
Sampling rate            : 44.1 KHz
Stream size              : 122 MiB (11%)

Caps:



Enlaces De Descarga


Subtitulos: Subtitulos en español
Idioma:    Ingles
Peso:       1.06GB
Tipo:      DVDRIP




Links Propios (de verdad)
Si el link no funca avisar.

No tiene password
Cleaner [DvdRip]
30 Puntos Score: 7.5/10
Visitas: 823 Favoritos: 1
Ver los usuarios que votaron...
0 Comentarios Cleaner [DvdRip]
Este post no tiene comentarios. Sea el primero!
Para dejar un comentario Registrate! o.. eres ya usuario? Accede!