Alanis Morissette Havoc and Bright Lights '12 vivo

Alanis Morissette Havoc and Bright Lights 2012 DVDRip












"Havoc and bright lights" es el séptimo álbum de estudio de Alanis Morissette. El primero en salir del Warner Music Group, fue publicado por medio de Collective Sounds.

Con la producción de Guy Sigsworth (Morissette, Madonna, Britney Spears, Björk, Seal) y Joe Chiccarelli (Frank Zappa, The Shins, Grace Potter, Tori Amos, Elton John, My Morning Jacket, U2).

"Este álbum es, como siempre, un reflejo de mis obsesiones, lo que me afecta por la mañana en mis momentos introspectivos", dice Morissette. "Es mi diario emocional, psicológico, social y filosófico a través de cada canción. ¿Quieres compartir con todo el mundo y no puedo esperar para tocaar en vivo y ver reacciones que provocan mis canciones ."

Como primer single, la canción que se llama Guardian. En el video se hace homenaje a la película "Wings of Desire" de Wim Wenders.

Lista de canciones:

1. You Learn
2. Guardian
3. Ironic
4. Head Over Feet
5. You Oughta Know
6. Numb
7. Hand in My Pocket
8. Uninvited



General
Complete name                  : Alanis.Morissette.Havoc.and.Bright.Lights.2012.DVDRip.XVID.AC3.HQ.Hive-CM8.avi
Format                         : AVI
Format/Info                    : Audio Video Interleave
Format profile                 : OpenDML
Format settings                : rec
File size                      : 697 MiB
Duration                       : 44mn 31s
Overall bit rate               : 2 190 Kbps
Writing application            : AVI-Mux GUI 1.17.8.3, Feb 16 201019:42:50
Video
ID                             : 0
Format                         : MPEG-4 Visual
Format profile                 : Advanced [email protected]
Format settings, BVOP          : 2
Format settings, QPel          : Yes
Format settings, GMC           : No warppoints
Format settings, Matrix        : Default (H.263)
Muxing mode                    : Packed bitstream
Codec ID                       : XVID
Codec ID/Hint                  : XviD
Duration                       : 44mn 31s
Bit rate                       : 1 928 Kbps
Width                          : 720 pixels
Height                         : 400 pixels
Display aspect ratio           : 16:9
Frame rate                     : 25.000 fps
Color space                    : YUV
Chroma subsampling             : 4:2:0
Bit depth                      : 8 bits
Scan type                      : Progressive
Compression mode               : Lossy
Bits/(Pixel*Frame)             : 0.268
Stream size                    : 614 MiB (88%)
Writing library                : XviD 1.2.1 (UTC 2008-12-04)
Audio
ID                             : 1
Format                         : AC-3
Format/Info                    : Audio Coding 3
Mode extension                 : CM (complete main)
Format settings, Endianness    : Big
Codec ID                       : 2000
Duration                       : 44mn 29s
Bit rate mode                  : Constant
Bit rate                       : 256 Kbps
Channel(s)                     : 2 channels
Channel positions              : Front: L R
Sampling rate                  : 48.0 KHz
Bit depth                      : 16 bits
Compression mode               : Lossy
Stream size                    : 81.5 MiB (12%)
Alignment                      : Aligned on interleaves
Interleave, duration           : 64 ms (1.60 video frames)
Interleave, preload duration   : 192 ms



















Enlaces De Descarga




Alanis Morissette Havoc and Bright Lights '12 vivo
0 Puntos Score: 0/10
Visitas: 862 Favoritos: 1
12 Comentarios Alanis Morissette Havoc and Bright Lights '12 vivo
EXCELENTE APORTE!!!! GRACIAS X COMPARTIRLO!!!
al descomprimir me sale un error please check it!!!
@claymaster mira amigo, es un poco dif?
dice archivo corrupto, se descargan unos 250 mb del archivo comprimido lo que son unos 15 minutos de concierto que por lo demas tiene una imagen y sonido excelentes.
@chinodelsur donde te da el mensaje?
al descomprimir el rar, lo baje denuevo y me salio lo mismo.
bacan, porque de alanis el material es muy escaso.
thanks downloading...
amigo se me descargo perfecto pero a la hora de reproducir se cuelga, ?
@tomatonsin es el HP mega, no sirve para una mierda.  Es la segunda vez que subo este material porque queda mal...
Dame tiempo y lo subo a un servidor de verdad!
Cita agamboat: Mostrar
:Dsi amigo por eso ya no subo nada ahi pero estare pendiente de que lo subas, saludos.
Para dejar un comentario Registrate! o.. eres ya usuario? Accede!