Oops.. Este post tiene los enlaces eliminados!

Identi revisa las denuncias de los usuarios en busca de enlaces eliminados que no dejan descargar los archivos, este mensaje te informa que este post que estas viendo tiene los enlaces eliminados.

Usa el Buscador

Por favor, te recomendamos que uses el buscador para encontrar más alternativas.

[FLAC/MP3 320kbps] Marilyn Manson - Los Mejores

  • Categoría: Reciclaje
  • Publicado hace más de 3 años







Hola compañeros de Identi. Este post les ofrece los mejores álbumes del muy conocido interprete Marilyn Manson (pueden dar click en su nombre y verán más sobre este artista).

Encontrarán los archivos en formato de alta calidad, FLAC y algunos otros también tipo MP3 de la máxima calidad disponible. Espero que aquellos amantes de la buena calidad de audio lo disfruten.


Todas las descargas son por...








General
Nombre completo: 1994 - Portrait Of An American Family
Formato: FLAC
Formato/Info: Free Lossless Audio Codec
Tamaño del archivo: 380MB
Duración: 61:03:30 min.
Modo de tasa de bits: Variable
Tasa de bits total: 799Kbps
Álbum: Portrait Of An American Family
Álbum/Intérprete: Marilyn Manson
Parte: 1/1
Intérprete: Marilyn Manson
Fecha de grabación: 1994
Portada: Sí
Tipo de portada: Frontal
Portada MIME: imagen/jpeg
Comentarios: BETA-Identi.li

Audio
Formato: FLAC
Formato/Info: Free Lossless Audio Codec
Duración: 61:03:30 min.
Tipo de tasa de bits: Variable
Tasa de bits: 692Kbps
Canal(es): 2canales
Velocidad de muestreo: 44,1KHz
BitDepth/String: 16bits
Librería de codificación: libFLAC 1.2.1 (UTC 2007-09-17)

Ripped

Peak level 97.2%
Track quality 100.0%
Test CRC BBF7921D
Copy CRC BBF7921D
Accurately ripped (confidence 4)[D80B7021]












Carátulas
Portrait Of An American Family.cue
Portrait Of An American Family.log
Portrait Of An American Family.m3u
FLAC Tracks (13)
cover.jpg
Fólder.jpg
















General
Nombre completo: 1995 - Smells Like Children
Formato: FLAC
Formato/Info: Free Lossless Audio Codec
Tamaño del archivo: 346.3MB
Duración: 54:51:52 min.
Modo de tasa de bits: Variable
Tasa de bits total: 1.131 Kbps
Álbum: Smells Like Children
Álbum/Intérprete: Marilyn Manson
Parte: 1/1
Intérprete: Marilyn Manson
Fecha de grabación: 1995
Portada: Sí
Tipo de portada: Frontal
Portada MIME: imagen/jpeg
Comentarios: BETA-Identi.li

Audio
Formato: FLAC
Formato/Info: Free Lossless Audio Codec
Duración: 54:51:52 min.
Tipo de tasa de bits: Variable
Tasa de bits: 1.091 Kbps
Canal(es): 2canales
Velocidad de muestreo: 44,1KHz
BitDepth/String: 16bits
Librería de codificación: libFLAC 1.2.1 (UTC 2007-09-17)

Ripped

Peak level 97.6%
Track quality 100.0%
Test CRC 1B0F80AE
Copy CRC 1B0F80AE
Accurately ripped (confidence 4)[D80B7021]








Carátulas
Smells Like Children.cue
Smells Like Children.log
Smells Like Children.m3u
FLAC Tracks (16)
Fólder.jpg














General
Nombre completo: 1996 - Antichrist Superstar
Formato: FLAC
Formato/Info: Free Lossless Audio Codec
Tamaño del archivo: 497.1MB
Duración: 70:10:45 min.
Modo de tasa de bits: Variable
Tasa de bits total: 1.038Kbps
Álbum: 1996 - Antichrist Superstar
Álbum/Intérprete: Marilyn Manson
Parte: 1/1
Intérprete: Marilyn Manson
Fecha de grabación: 1996
Portada: Sí
Tipo de portada: Frontal
Portada MIME: imagen/jpeg
Comentarios: BETA-Identi.li

Audio
Formato: FLAC
Formato/Info: Free Lossless Audio Codec
Duración: 70:10:45 min.
Tipo de tasa de bits: Variable
Tasa de bits: 1.038Kbps
Canal(es): 2canales
Velocidad de muestreo: 44,1KHz
BitDepth/String: 16bits
Librería de codificación: libFLAC 1.2.1 (UTC 2007-09-17)

Ripped

Peak level 97.2%
Track quality 100.0%
Peak level 99.9%
     Track quality 100.0%
     Test CRC 7BECD5AB
     Copy CRC 7BECD5AB
     Accurately ripped (confidence 11)[375CC1C5]








Carátulas
Antichrist Superstar.cue
Antichrist Superstar.log
Antichrist Superstar.m3u
FLAC Tracks (16)
Fólder.jpg













General
Nombre completo: 1998 - Mechanical Animals
Formato: FLAC
Formato/Info: Free Lossless Audio Codec
Tamaño del archivo: 521MB
Duración: 70:10:45 min.
Modo de tasa de bits: Variable
Tasa de bits total: 1.123Kbps
Álbum: 1998 - Mechanical Animals
Álbum/Intérprete: Marilyn Manson
Parte: 1/1
Intérprete: Marilyn Manson
Fecha de grabación: 1998
Portada: Sí
Tipo de portada: Frontal
Portada MIME: imagen/jpeg
Comentarios: BETA-Identi.li

Audio
Formato: FLAC
Formato/Info: Free Lossless Audio Codec
Duración: 70:10:45 min.
Tipo de tasa de bits: Variable
Tasa de bits: 1.056Kbps
Canal(es): 2canales
Velocidad de muestreo: 44,1KHz
BitDepth/String: 16bits
Librería de codificación: libFLAC 1.2.1 (UTC 2007-09-17)

Ripped

Peak level 99.8%
Track quality 100.0%
Test CRC 559AE398
Copy CRC 559AE398
Accurately ripped (confidence 16)[1BC3B137]







Carátulas
FLAC Tracks (14)
Marilyn Manson - Mechanical Animals.log
Marilyn Manson - Mechanical Animals.m3u
Mechanical Animals.cue

Fólder.jpg
Info.txt














General
Nombre completo: 1999 - The Last Tour On Earth
Formato: FLAC
Formato/Info: Free Lossless Audio Codec
Tamaño del archivo: 485MB
Duración: 69:09:72 min.
Modo de tasa de bits: Variable
Tasa de bits total: 1.027Kbps
Álbum: 1999 - The Last Tour On Earth
Álbum/Intérprete: Marilyn Manson
Parte: 1/1
Intérprete: Marilyn Manson
Fecha de grabación: 1999
Portada: Sí
Tipo de portada: Frontal
Portada MIME: imagen/jpeg
Comentarios: BETA-Identi.li

Audio
Formato: FLAC
Formato/Info: Free Lossless Audio Codec
Duración: 69:09:72 min.
Tipo de tasa de bits: Variable
Tasa de bits: 1.027Kbps
Canal(es): 2canales
Velocidad de muestreo: 44,1KHz
BitDepth/String: 16bits
Librería de codificación: libFLAC 1.2.1 (UTC 2007-09-17)

Ripped

Peak level 99.8%
Track quality 100.0%
Test CRC 559AE398
Copy CRC 559AE398
Accurately ripped (confidence 16)[1BC3B137]







Carátulas
The Last Tour On Earth.cue
The Last Tour On Earth.log
The Last Tour On Earth.m3u
FLAC Tracks (14)
Fólder.jpg














General
Nombre completo: 2000 - Holy Wood (In The Shadow Of The Valley Of Death)
Formato: FLAC
Formato/Info: Free Lossless Audio Codec
Tamaño del archivo: 477MB
Duración: 70:49.12 Min.
Modo de tasa de bits: Variable
Tasa de bits total: 1.038Kbps
Álbum: 2000 - Holy Wood (In The Shadow Of The Valley Of Death)
Álbum/Intérprete: Marilyn Manson
Parte: 1/1
Intérprete: Marilyn Manson
Fecha de grabación: 2000
Portada: Sí
Tipo de portada: Frontal
Portada MIME: imagen/jpeg
Comentarios: BETA-Identi.li

Audio
Formato: FLAC
Formato/Info: Free Lossless Audio Codec
Duración: 70:49:12 min.
Tipo de tasa de bits: Variable
Tasa de bits: 1.037Kbps
Canal(es): 2canales
Velocidad de muestreo: 44,1KHz
BitDepth/String: 16bits
Librería de codificación: libFLAC 1.2.1 (UTC 2007-09-17)

Ripped

Peak level 99.8 %
Track quality 100.0 %
Test CRC 35CC471E
Copy CRC 35CC471E
Accurately ripped (confidence 3)[90DCBBA7]


     




Carátulas
Holy Wood (In The Shadow Of The Valley Of Death).cue
Holy Wood (In The Shadow Of The Valley Of Death).log
Holy Wood (In The Shadow Of The Valley Of Death).m3u
FLAC Tracks (19)
Fólder.jpg
















General
Nombre completo: 2003 - The Golden Age Of Grotesque
Formato: FLAC
Formato/Info: Free Lossless Audio Codec
Tamaño del archivo: 430MB
Duración: 57:39:88 Min.
Modo de tasa de bits: Variable
Tasa de bits total: 1.032Kbps
Álbum: 2003 - The Golden Age Of Grotesque
Álbum/Intérprete: Marilyn Manson
Parte: 1/1
Intérprete: Marilyn Manson
Fecha de grabación: 2003
Portada: Sí
Tipo de portada: Frontal
Portada MIME: imagen/jpeg
Comentarios: BETA-Identi.li

Audio
Formato: FLAC
Formato/Info: Free Lossless Audio Codec
Duración: 57:39:88 min.
Tipo de tasa de bits: Variable
Tasa de bits: 1.004Kbps
Canal(es): 2canales
Velocidad de muestreo: 44,1KHz
BitDepth/String: 16bits
Librería de codificación: libFLAC 1.2.1 (UTC 2007-09-17)

Ripped

Peak level 100.0%
Track quality 100.0%
Test CRC 0BEAAC5C
Copy CRC 0BEAAC5C
Accurately ripped (confidence 86)[970765C4]









Carátulas
FLAC Tracks (15)
Marilyn Manson - The Golden Age Of Grotesque.cue
Marilyn Manson - The Golden Age Of Grotesque.log
Marilyn Manson - The Golden Age Of Grotesque.m3u
Fólder.jpg

















General

Nombre completo: 2007 - Eat Me, Drink Me

Formato: FLAC

Formato/Info: Free Lossless Audio Codec

Tamaño del archivo: MB

Duración: :: Min.

Modo de tasa de bits: Variable

Tasa de bits total: 1.043Kbps

Álbum: 2007 - Eat Me, Drink Me

Álbum/Intérprete: Marilyn Manson

Parte: 1/1

Intérprete: Marilyn Manson

Fecha de grabación: 2007

Portada: Sí

Tipo de portada: Frontal

Portada MIME: imagen/jpeg

Comentarios: BETA-Identi.li


Audio

Formato: FLAC

Formato/Info: Free Lossless Audio Codec

Duración: :: min.

Tipo de tasa de bits: Variable

Tasa de bits: 1.039Kbps

Canal(es): 2canales

Velocidad de muestreo: 44,1KHz

BitDepth/String: 16bits

Librería de codificación: libFLAC 1.2.1 (UTC 2007-09-17)


Ripped


Peak level 98.7%

Track quality 99.9%

Test CRC A81D703D

Copy CRC A81D703D

Accurately ripped (confidence 68)[BD779C69]









Carátulas
FLAC Tracks (11)
Marilyn Manson - Eat Me, Drink Me.cue
Marilyn Manson - Eat Me, Drink Me.log
Marilyn Manson - Eat Me, Drink Me.m3u
Folder.jpg











(Click sobre la imagen para conocer más sobre este formato)








(para descargar, por favor, click en la imagen del CD)









(para descargar, por favor, click en la imagen del CD)











(para descargar, por favor, click en la imagen del CD)























Enlace youtube inválido ]http://www.youtube.com/watch?v=EYIKnc4Lc2c[/youtube][/url]





(Dale click a la imagen de arriba si quieres la lista de enlaces en un archivo de texto)




NOTA: "Waffle Iron" es un sello de calidad y confianza en el rip. Indica que es una copia del 100% exacta. Cada archivo FLAC incluído en este post lleva el sello Waffle Iron.
[FLAC/MP3 320kbps] Marilyn Manson - Los Mejores
30 Puntos Score: 7.5/10
Visitas: 2949 Favoritos: 6
Ver los usuarios que votaron...
13 Comentarios [FLAC/MP3 320kbps] Marilyn Manson - Los Mejores
buen aporte para la banda rockera ya me corte la gre?
@mcoraq Gracias por pasar... Salu2 y que disfrutes este aporte!!!  
Hola @salaguin espero que te guste esta tambi?
gran aporte @Betancourt , sigue subiendo en lossless  
para mi el mejor disco es holy wood es lo mas....
@DiegoAQP Gracias Diego por apreciar la calidad del audio... ese fue el objetivo de mi post... la calidad del audio, porque bien sabemos que post de MM hay muchos, pero la calidad del audio no pasa de los 128kbps...
Espero que disfrutes el aporte y que de hoy en adelante haga parte de tu colecci?
@salaguin Muchas gracias!!! un saludo muy especial para tii....!!!  
excelente material amigo me la descargo toda!
Para dejar un comentario Registrate! o.. eres ya usuario? Accede!