Super agente 86 - Latino (Online y/o descarga)

Super agente 86 - Latino (Online y/o descarga)















Título: Superagente 86 de película
Título original: Get Smart
País: USA 
Estreno en USA: 20/06/2008 
Estreno en España: 23/07/2008 
Lanzamiento en DVD (alquiler): 19/11/2008 
Estreno en DVD (venta): 09/12/2008 
Estreno en Blu-ray: 09/12/2008 
Productora: Warner Bros. Pictures 
Director: Peter Segal 
Guión: Tom J. Astle, Mel Brooks, Matt Ember, Buck Henry 
Reparto: Steve Carell, Anne Hathaway, Dwayne Johnson, Alan Arkin, Terence Stamp, Terry Crews, David Koechner, James Caan, Masi Oka, Nate Torrence, Kenneth Davitian

Sinopsis:

Adaptación de la serie de televisión de los años 60 "Superagente 86". Maxwell Smart (Steve Carell) tiene una misión: evitar que la maligna organización conocida como KAOS llegue a dominar el mundo. Cuando la central de la agencia de espías Control norteamericana es atacada, las identidades de sus agentes secretos corren riesgo de ser descubiertas. Al jefe de la agencia (Alan Arkin), no le queda otra opción más que llamar a su siempre listo analista Maxwell Smart. Él siempre soñó con trabajar como espía junto al resuelto agente estrella 23 (Dwayne Johnson). En vez de eso, Smart debe tener como compañera a la amorosa pero letal agente veterana 99 (Anne Hathaway). Con muy poca experiencia en el campo y poquísimo tiempo para hacer todo, Smart?armado tan solo con algunos dispositivos técnicos de espía, y un entusiasmo sin límites ? debe tratar de impedir a toda costa que los planes del jefe de KAOS, Siegfried (Terance Stamp), se cumplan.



General
Complete name                  : Super.Agente.86.AudioLatino.flv
Format                         : Flash Video
File size                      : 396 MiB
Duration                       : 1h 49mn
Overall bit rate               : 503 Kbps
Tagging application            : Yet Another Metadata Injector for FLV - Version 1.9

Video
Format                         : AVC
Format/Info                    : Advanced Video Codec
Format profile                 : [email protected]
Format settings, CABAC         : Yes
Format settings, ReFrames      : 4 frames
Codec ID                       : 7
Duration                       : 1h 49mn
Bit rate                       : 400 Kbps
Width                          : 608 pixels
Height                         : 320 pixels
Display aspect ratio           : 1.900
Frame rate mode                : Constant
Frame rate                     : 23.976 fps
Color space                    : YUV
Chroma subsampling             : 4:2:0
Bit depth                      : 8 bits
Scan type                      : Progressive
Bits/(Pixel*Frame)             : 0.086
Stream size                    : 315 MiB (80%)
Writing library                : x264 core 125 r2200 999b753
Encoding settings              : cabac=1 / ref=2 / deblock=1:0:0 / analyse=0x3:0x113 / me=hex / subme=6 / psy=1 / psy_rd=1.00:0.00 / mixed_ref=1 / me_range=16 / chroma_me=1 / trellis=1 / 8x8dct=1 / cqm=0 / deadzone=21,11 / fast_pskip=1 / chroma_qp_offset=-2 / threads=24 / lookahead_threads=4 / sliced_threads=0 / nr=0 / decimate=1 / interlaced=0 / bluray_compat=0 / constrained_intra=0 / bframes=3 / b_pyramid=2 / b_adapt=1 / b_bias=0 / direct=1 / weightb=1 / open_gop=0 / weightp=1 / keyint=250 / keyint_min=23 / scenecut=40 / intra_refresh=0 / rc_lookahead=30 / rc=2pass / mbtree=1 / bitrate=400 / ratetol=1.0 / qcomp=0.60 / qpmin=0 / qpmax=69 / qpstep=4 / cplxblur=20.0 / qblur=0.5 / vbv_maxrate=400 / vbv_bufsize=1000 / nal_hrd=none / ip_ratio=1.40 / aq=1:1.00

Audio
Format                         : AAC
Format/Info                    : Advanced Audio Codec
Format profile                 : LC
Codec ID                       : 10
Duration                       : 1h 49mn
Bit rate                       : 94.3 Kbps
Channel(s)                     : 2 channels
Channel positions              : Front: L R
Sampling rate                  : 44.1 KHz
Compression mode               : Lossy
Delay relative to video        : 19ms
Stream size                    : 78.9 MiB (20%)







Para verla online:

Click aquí para abrir el video



Enlaces De Descarga




Super agente 86 - Latino (Online y/o descarga)
10 Puntos Score: 10/10
Visitas: 6386 Favoritos: 0
Ver los usuarios que votaron...
3 Comentarios Super agente 86 - Latino (Online y/o descarga)
o yo pensaba en la serie vieja
yo tmb pense que era la serie -.- la estoy bajando por torrent pero algunos capitulo ya no descargan seria genial si alguien pudiese subirla XD!
Para dejar un comentario Registrate! o.. eres ya usuario? Accede!