Oops.. Este post tiene los enlaces eliminados!

Identi revisa las denuncias de los usuarios en busca de enlaces eliminados que no dejan descargar los archivos, este mensaje te informa que este post que estas viendo tiene los enlaces eliminados.

Usa el Buscador

Por favor, te recomendamos que uses el buscador para encontrar más alternativas.

Kill Katie Malone (2010) [EN][Subs]

  • Categoría: Reciclaje
  • Publicado hace más de 3 años
Kill Katie Malone (2010) [EN][Subs]



















General
Complete name                  : Kill.Katie.Malone.2010.DVDRip.Xvid.avi
Format                         : AVI
Format/Info                    : Audio Video Interleave
File size                      : 700 MiB
Duration                       : 1h 31mn
Overall bit rate mode          : Variable
Overall bit rate               : 1 070 Kbps
Writing application            : VirtualDubMod 1.5.10.2 (build 2540/release)
Writing library                : VirtualDubMod build 2540/release

Video
ID                             : 0
Format                         : MPEG-4 Visual
Format profile                 : Advanced [email protected]
Format settings, BVOP          : 2
Format settings, QPel          : No
Format settings, GMC           : No warppoints
Format settings, Matrix        : Default (H.263)
Codec ID                       : XVID
Codec ID/Hint                  : XviD
Duration                       : 1h 31mn
Bit rate                       : 936 Kbps
Width                          : 640 pixels
Height                         : 320 pixels
Display aspect ratio           : 2.000
Frame rate                     : 23.976 fps
Color space                    : YUV
Chroma subsampling             : 4:2:0
Bit depth                      : 8 bits
Scan type                      : Progressive
Compression mode               : Lossy
Bits/(Pixel*Frame)             : 0.191
Stream size                    : 612 MiB (87%)
Writing library                : XviD 64

Audio
ID                             : 1
Format                         : MPEG Audio
Format version                 : Version 1
Format profile                 : Layer 3
Mode                           : Joint stereo
Mode extension                 : MS Stereo
Codec ID                       : 55
Codec ID/Hint                  : MP3
Duration                       : 1h 31mn
Bit rate mode                  : Variable
Bit rate                       : 122 Kbps
Nominal bit rate               : 128 Kbps
Channel(s)                     : 2 channels
Sampling rate                  : 48.0 KHz
Compression mode               : Lossy
Stream size                    : 79.6 MiB (11%)
Alignment                      : Aligned on interleaves
Interleave, duration           : 24 ms (0.58 video frame)
Interleave, preload duration   : 151 ms
Writing library                : LAME3.98r
Encoding settings              : -m j -V 4 -q 2 -lowpass 17 --abr 128









Enlaces De Descarga



Subtitulos

Kill Katie Malone (2010) [EN][Subs]
10 Puntos Score: 10/10
Visitas: 582 Favoritos: 1
Ver los usuarios que votaron...
2 Comentarios Kill Katie Malone (2010) [EN][Subs]
se ve buena ,graciass
Para dejar un comentario Registrate! o.. eres ya usuario? Accede!