Macross Zero Ovas [mega]

Bienvenidos


Bueno  continuando con las Subidas relacionadas con Macross

hoy traigo:


 

                           Sipnosis:

Macross Zero está ambientada entre los años 2007 al 2008, tiempo antes de la primera guerra contra los Zentradi (eventos relatados en la serie Macross original), en el Pacífico Sur, donde nueve años antes cayó una nave alienígena en la tierra, la cual fue reconstruida y bautizada más adelante como SDF-1 Macross.
En medio de las batallas finales de la Guerra de Unificación[sup]1[/sup] entre las fuerzas de U.N. Spacy (Naciones Unidas) y las de la Alianza Anti-UN (anti Naciones Unidas), un joven piloto de un F-14 de la U.N. llamado Shin Kud? es derribado por un misterioso caza que posee la capacidad de transformarse en un robot humanoide. Kud? alcanza a eyectarse de la aeronave, esta se estrella en el mar cerca de una isla conocida como Mayan, situada en medio del Pacífico. Shin llega inconsciente a la playa de la Isla. Allí es protegido por la chamán de la isla, una bella y enigmática mujer de nombre Sara, quien conoce todos los secretos, misterios y leyendas sobre los Kadun ("hombres Pájaro").
Kud? vuelve a la flota y se une al Escuadrón Skull, comandado por Roy Focker, quien pilota el VF-0S (el Líder Skull). Sin embargo, en Mayan se encuentra oculto material relacionado con la nave espacial alienígena. Los habitantes de Mayan quedan atrapados en medio de la pelea entre las fuerzas de U.N. y Anti-U.N. por obtener y controlar la tecnología alienígena.

Episodios:
El oceano y el Viento
La estrella en la tierra
Batalla azul desesperada
Jungla
Hombre pajaro


Detalles de los archivos:
Format                           : MPEG-4
Format profile                   : Base Media
Codec ID                         : isom
File size                        : 174 MiB
Duration                         : 30mn 41s
Overall bit rate                 : 791 Kbps

Video
ID                                              : 1
Format                                      : AVC
Format/Info                                : Advanced Video Codec
Format profile                           : [email protected]
Format settings, CABAC           : Yes
Format settings, ReFrames      : 2 frames
Codec ID                                   : avc1
Codec ID/Info                            : Advanced Video Coding
Duration                                     : 30mn 41s
Bit rate mode                             : Variable
Bit rate                                        : 667 Kbps
Maximum bit rate                       : 2 986 Kbps
Width                                          : 848 pixels
Height                                         : 480 pixels
Display aspect ratio                   : 16:9
Frame rate mode                       : Constant
Frame rate                                  : 23.976 fps
Color space                                : YUV
Chroma subsampling                 : 4:2:0
Bit depth                                    : 8 bits
Scan type                                   : Progressive
Bits/(Pixel*Frame)                     : 0.068
Stream size                                : 145 MiB (84%)
Writing library                            : x264 core 54 svn-654

Audio
ID                                    : 2
Format                            : AAC
Format/Info                    : Advanced Audio Codec
Format version               : Version 4
Format profile                 : LC
Format settings, SBR      : Yes
Format settings, PS        : No
Codec ID                         : 40
Duration                          : 30mn 41s
Bit rate mode                  : Variable
Bit rate                            : 126 Kbps
Maximum bit rate            : 152 Kbps
Channel(s)                       : 6 channels
Channel positions           : Front: L C R, Side: L R, LFE
Sampling rate                  : 48.0 KHz
Stream size                     : 27.7 MiB (16%)


Capturas:
 







Macross Zero Ovas [mega]
25 Puntos Score: 8.3/10
Visitas: 5836 Favoritos: 4
Ver los usuarios que votaron...
14 Comentarios Macross Zero Ovas [mega]
Increible. No la podia conseguir por ningun lado. Exelente aporte. Gracias. Aun no puedo dar puntos pero te los mereces. Gracias.
QUE BUEN POST , EXCELENTE CALIDAD , MUY BUENO MEN.....
tengo tengo problemas con mega no puede descargar ni del gestor y el navegador gracias
Bajndo Gracias Men!
Gracias, este es la movie completa ???, en partes ??, gracias por compartirla.  
links rotos, podrias resubirlos?
Links muertos. Donde mas la puedo conseguir?
Links muertos...  
LINKS MUERTOSSSSSS!!!!!!!
En unos dias actualizare los links pidos disculpas por no poderlo hacer antes
Saludos y esten atentos
se q es viejo pero los podrias re subir?
Link caidos, de todas formas gracias por compartirl
Para dejar un comentario Registrate! o.. eres ya usuario? Accede!