The Hobbit An Unexpected Journey 2012 3D 1080p

The Hobbit An Unexpected Journey 2012 3D 1080p Blu ray H-SBS

Hola, Bienvenidos a mi post.  Les traigo la película El Hobbit en 3D (medio SBS).  Viene en multi idioma (Inglés, Español, Portugués y Francés).  Espero la disfruten.



















General
Unique ID                        : 239839030937860810765712549147051788923 (0xB46F5130D8F842D3B661D2 >>
9AB1B8A7B)
Complete name                    : D:3D MoviesThe.Hobbit.An.Unexpected.Journey.2012.3D.1080p.Blura >>
.H-SBS.mkv
Format                           : Matroska
File size                        : 18.2 GiB
Duration                         : 2h 49mn
Overall bit rate                 : 15.3 Mbps
Encoded date                     : UTC 2013-03-04 05:51:49
Writing application              : mkvmerge v6.1.0 ('Old Devil') built on Mar  2 2013 14:32:37
Writing library                  : libebml v1.3.0 + libmatroska v1.4.0

Video
ID                               : 1
Format                           : AVC
Format/Info                      : Advanced Video Codec
Format profile                   : [email protected]
Format settings, CABAC           : Yes
Format settings, ReFrames        : 4 frames
Format settings, GOP             : M=7, N=16
Codec ID                         : V_MPEG4/ISO/AVC
Duration                         : 2h 49mn
Bit rate                         : 12.2 Mbps
Width                            : 1 920 pixels
Height                           : 1 080 pixels
Display aspect ratio             : 16:9
Frame rate                       : 23.976 fps
Color space                      : YUV
Chroma subsampling               : 4:2:0
Bit depth                        : 8 bits
Scan type                        : Progressive
Bits/(Pixel*Frame)               : 0.245
Stream size                      : 14.4 GiB (79%)
Title                            : The.Hobbit.An.Unexpected.Journey.2012.3D.1080p.Bluray.H-SBS
Writing library                  : x264 core 130 r2273 b3065e6
Encoding settings                : cabac=1 / ref=4 / deblock=1:-3:-3 / analyse=0x3:0x113 / me=umh / subme=9 >>
/ psy=1 / psy_rd=1.00:0.15 / mixed_ref=1 / me_range=16 / chroma_me=1 / trellis=1 / 8x8dct=1 / cqm=0 / >>
deadzone=21,11 / fast_pskip=1 / chroma_qp_offset=-3 / threads=12 / lookahead_threads=1 / sliced_threads=0 >>
/ nr=0 / decimate=1 / interlaced=0 / bluray_compat=0 / constrained_intra=0 / bframes=6 / b_pyramid=2 >>
/ b_adapt=1 / b_bias=0 / direct=3 / weightb=1 / open_gop=0 / weightp=2 / keyint=250 / keyint_min=23 / >>
scenecut=40 / intra_refresh=0 / rc_lookahead=40 / rc=crf / mbtree=1 / crf=16.0 / qcomp=0.60 / qpmin=10 >>
/ qpmax=69 / qpstep=4 / vbv_maxrate=40000 / vbv_bufsize=30000 / crf_max=0.0 / nal_hrd=none / >>
ip_ratio=1.40 / aq=1:1.00

Audio #1
ID                               : 2
Format                           : DTS
Format/Info                      : Digital Theater Systems
Codec ID                         : A_DTS
Duration                         : 2h 49mn
Bit rate mode                    : Constant
Bit rate                         : 1 510 Kbps
Channel(s)                       : 6 channels
Channel positions                : Front: L C R, Side: L R, LFE
Sampling rate                    : 48.0 KHz
Bit depth                        : 24 bits
Compression mode                 : Lossy
Stream size                      : 1.79 GiB (10%)
Language                         : English

Audio #2
ID                               : 3
Format                           : AC-3
Format/Info                      : Audio Coding 3
Mode extension                   : CM (complete main)
Codec ID                         : A_AC3
Duration                         : 2h 49mn
Bit rate mode                    : Constant
Bit rate                         : 448 Kbps
Channel(s)                       : 6 channels
Channel positions                : Front: L C R, Side: L R, LFE
Sampling rate                    : 48.0 KHz
Bit depth                        : 16 bits
Compression mode                 : Lossy
Stream size                      : 544 MiB (3%)
Language                         : French

Audio #3
ID                               : 4
Format                           : AC-3
Format/Info                      : Audio Coding 3
Mode extension                   : CM (complete main)
Codec ID                         : A_AC3
Duration                         : 2h 49mn
Bit rate mode                    : Constant
Bit rate                         : 448 Kbps
Channel(s)                       : 6 channels
Channel positions                : Front: L C R, Side: L R, LFE
Sampling rate                    : 48.0 KHz
Bit depth                        : 16 bits
Compression mode                 : Lossy
Stream size                      : 544 MiB (3%)
Language                         : Spanish

Audio #4
ID                               : 5
Format                           : AC-3
Format/Info                      : Audio Coding 3
Mode extension                   : CM (complete main)
Codec ID                         : A_AC3
Duration                         : 2h 49mn
Bit rate mode                    : Constant
Bit rate                         : 448 Kbps
Channel(s)                       : 6 channels
Channel positions                : Front: L C R, Side: L R, LFE
Sampling rate                    : 48.0 KHz
Bit depth                        : 16 bits
Compression mode                 : Lossy
Stream size                      : 544 MiB (3%)
Language                         : Portuguese

Menu
00:00:00.000                     : en:00:00:00.000
00:08:51.531                     : en:00:08:51.531
00:12:58.903                     : en:00:12:58.903
00:16:34.619                     : en:00:16:34.619
00:20:50.666                     : en:00:20:50.666
00:25:09.007                     : en:00:25:09.007
00:33:14.409                     : en:00:33:14.409
00:38:26.804                     : en:00:38:26.804
00:43:40.368                     : en:00:43:40.368
00:50:12.301                     : en:00:50:12.301
00:55:16.939                     : en:00:55:16.939
00:57:04.838                     : en:00:57:04.838
01:07:51.985                     : en:01:07:51.985
01:12:11.369                     : en:01:12:11.369
01:16:03.559                     : en:01:16:03.559
01:22:06.463                     : en:01:22:06.463
01:28:49.991                     : en:01:28:49.991
01:32:03.518                     : en:01:32:03.518
01:40:33.117                     : en:01:40:33.117
01:43:10.357                     : en:01:43:10.357
01:49:16.473                     : en:01:49:16.473
01:54:08.098                     : en:01:54:08.098
01:57:01.605                     : en:01:57:01.605
02:10:31.455                     : en:02:10:31.455
02:12:29.532                     : en:02:12:29.532
02:13:41.228                     : en:02:13:41.228
02:18:02.948                     : en:02:18:02.948
02:20:12.869                     : en:02:20:12.869
02:23:02.622                     : en:02:23:02.622
02:34:02.073                     : en:02:34:02.073
02:39:31.068                     : en:02:39:31.068








Enlaces De Descarga




The Hobbit An Unexpected Journey 2012 3D 1080p
0 Puntos Score: 0/10
Visitas: 2811 Favoritos: 6
11 Comentarios The Hobbit An Unexpected Journey 2012 3D 1080p
capooo.tengo problemas para bajar de billion uploads.la podes subir a putlocker o mega? desde ya muchas gracias!!
@usfpro creo que si pero debes entender que esto no es una subida de dos horas, debes darme tiempo...
Excelente aporte amigo solo que si puderas subirlo a Putlocker seria genial de cualquier forma muchas gracias.
@RyKnOw claro amigo, solo debes darme tiempo:

Cita agamboat: Mostrar
@agamboat estare al pendiente, gracias por tu tiempo  
sisi obvio.tomate el tiempo q necesites...muchas gracias por tu buena onda..saludos!!
Cita usfpro: Mostrar

 
igual gracias por subirla  
amigo los link estan caidos, podrias resubirlos porfavor
Para dejar un comentario Registrate! o.. eres ya usuario? Accede!