Django desencadenado 2012 [BDRip 1080p][Audio Lat]


Django desencadenado 2012

BDRip 1080p | Audio Latino AC3 5.1  | 1.87 GB


Ambientada en los estados del Sur estadounidense dos años antes de estallar la Guerra Civil, DJANGO DESENCADENADO está protagonizada por el actor ganador del Oscar® Jamie Foxx en el papel de Django, un esclavo cuyo brutal pasado con sus antiguos dueños le lleva cara a cara con el cazarrecompensas de origen alemán, el Dr. King Schultz (el actor ganador del Oscar® Christoph Waltz). Schultz le sigue la pista a los hermanos asesinos Brittle y Django es el único que podrá llevarle hasta ellos. El poco ortodoxo Schultz compra a Django con la promesa de dejarlo en libertad tras capturar a los Brittle ? muertos o vivos

Datos de la Pelicula

Título: Django desencadenado

Título original: Django Unchained

País: USA

Estreno en USA: 25/12/2012

Estreno en España: 18/01/2013

Productora: The Weinstein Company

Director: Quentin Tarantino

Guión: Quentin Tarantino

Reparto: Jamie Foxx, Kerry Washington, Leonardo DiCaprio, Christoph Waltz, Samuel L. Jackson, M.C. Gainey, Walton Goggins, Garrett Dillahunt, Dennis Christopher, Gerald McRaney, Laura Cayouette, M.C. Gainey, Don Johnson, Tom Savini, Anthony LaPaglia, RZA, Tom Wopat, James Remar, James Russo, Todd Allen, Jonah Hill

Info Codificacion
General

Complete name : Django.Unchained.2012.1080p.BDRip.Latino.by.almacervecera.mkv
Format : Matroska
Format version : Version 2
File size : 1.87 GiB
Duration : 2h 45mn
Overall bit rate : 1 620 Kbps
Movie name : Django.Unchained.2012.1080p.BDRip.Latino.by.almacervecera
Encoded date : UTC 2013-03-27 17:31:13
Writing application : mkvmerge v3.4.0 (?Rapunzel?) built on May 15 2010 09:38:20
Writing library : libebml v0.8.0 + libmatroska v0.9.0

Video
ID : 1
Format : AVC
Format/Info : Advanced Video Codec
Format profile : [email protected]
Format settings, CABAC : Yes
Format settings, ReFrames : 6 frames
Codec ID : V_MPEG4/ISO/AVC
Duration : 2h 45mn
Bit rate : 1 332 Kbps
Width : 1 920 pixels
Height : 800 pixels
Display aspect ratio : 2.40:1
Frame rate mode : Constant
Frame rate : 23.943 fps
Color space : YUV
Chroma subsampling : 4:2:0
Bit depth : 8 bits
Scan type : Progressive
Bits/(Pixel*Frame) : 0.036
Stream size : 1.54 GiB (82%)
Title : by.almacervecera
Writing library : x264 core 120
Language : English
Default : Yes
Forced : No
Color primaries : BT.709
Transfer characteristics : BT.709
Matrix coefficients : BT.709

Audio
ID : 2
Format : AC-3
Format/Info : Audio Coding 3
Mode extension : CM (complete main)
Format settings, Endianness : Big
Codec ID : A_AC3
Duration : 2h 45mn
Bit rate mode : Constant
Bit rate : 256 Kbps
Channel(s) : 6 channels
Channel positions : Front: L C R, Side: L R, LFE
Sampling rate : 48.0 KHz
Bit depth : 16 bits
Compression mode : Lossy
Stream size : 303 MiB (16%)
Title : by.almacervecera
Language : Spanish
Default : Yes
Forced : No

Menu
00:00:00.000 : en:Chapter 1
00:03:36.135 : en:Chapter 2
00:12:47.310 : en:Chapter 3
00:18:48.880 : en:Chapter 4
00:26:48.150 : en:Chapter 5
00:31:44.446 : en:Chapter 6
00:40:26.843 : en:Chapter 7
00:46:04.806 : en:Chapter 8
00:52:36.072 : en:Chapter 9
00:58:12.783 : en:Chapter 10
01:02:19.947 : en:Chapter 11
01:12:13.122 : en:Chapter 12
01:18:35.338 : en:Chapter 13
01:26:07.498 : en:Chapter 14
01:34:49.477 : en:Chapter 15
01:40:52.048 : en:Chapter 16
01:45:33.788 : en:Chapter 17
01:50:00.971 : en:Chapter 18
01:55:03.690 : en:Chapter 19
02:03:54.554 : en:Chapter 20
02:08:13.688 : en:Chapter 21
02:14:14.048 : en:Chapter 22
02:17:28.909 : en:Chapter 23
02:22:31.795 : en:Chapter 24
02:26:28.448 : en:Chapter 25
02:33:00.131 : en:Chapter 26
02:35:41.668 : en:Chapter 27
02:41:30.933 : en:Chapter 28
02:45:22.415 : en:Chapter 29

Capturas
















Sin contraseña | Facil Extraction |  Links Intercambiables




Django desencadenado 2012 [BDRip 1080p][Audio Lat]
10 Puntos Score: 5/10
Visitas: 2287 Favoritos: 0
Ver los usuarios que votaron...
12 Comentarios Django desencadenado 2012 [BDRip 1080p][Audio Lat]
x q le bajaste a la calidad?   la q tenias estaba de 10  esas livianas no se ven bien en el tv   GRACIAS   y tenlo en cuenta
con mis 120 megas billionsupload me descarga a 60 kilos por segundo tiempo estimado de descarga para los 3 archivos 15 horas jajajajajajajaj, estas loco, paso la buscare en otro lado, con servidores que sirvan.
@arkiman deberias cambiar de compa?
Cita royocan: Mostrar
no tiene casi perdida de calidad para el ojo humano, yo tengo un samsumg smart tv y se ve de lujo y es de 40 pulgadas, no tiene casi perdidas ,osea estas hablando sin probar mis rip
Cita arkiman: Mostrar
dudo que consigas el mismo rip mio, salvo que alguien me lo leeche y lo suba a mega, pero no estarias descargando de el que hiso el trabajo sino de un simple troll, saludos, y tendrias que apoyar mas a los verdaderos ripers y no a la inmensa mayoria de troll que estan en esta web, no te olvides que yo no solo soy uploader , sino encodeo mis propias pelis a partir del BD original, no es muy elegante que apoyes a simples leechers, y a los que hacen los rip los bardees
por mi bajen de quien quieran y se les de la gana y del servidor que mas le convenga, pero tengan en cuenta , que verdaderos enconders no hay muchos latinos, ya que el requerimiento que tiene un encoder no es barato ni mucho menos, te hago una breve esplicacion , la pelicula siempre sale en BD de 50 gb, varia entre 22 y 50 Gb, hay ripers rusos ingles y demas , como sparks, que encodean pero en ingles casi siempre, latinos o espa?
me parece que cambiaste los link? ayer eran 4 cuatro y ahora 3, los otros tenian contrase?
Gracias bro por este gran aporte se ve genial
Cita rb: Mostrar
juanw200 : con mi internet bajo full con todos los servidores menos con billiuopload, nunca me demoro mas de 15 minutos en bajar una pel?
xhyruja: la encontr?
Para mi esta bien esa calidad. Y yo tengo un TV LG de 47 pulgadas 3D.
Voy a bajarla y luego comento de la calidad.
Gracias por el aporte.
 
Para dejar un comentario Registrate! o.. eres ya usuario? Accede!