Curso Práctico de Dibujo y Pintura - En Español



????????????????????????????????????????????????????????????

CURSO PRÁCTICO DE DIBUJO Y PINTURA. LAROUSSE. En Español.
 
La manera mas fácil y eficaz de aprender a dibujar y pintar.
Un curso práctico formado por 9 videos donde se trata el dibujo, óleo, acuarela, técnicas varias. Cada sección esta organizada en unidades didácticas que permiten adquirir unos conocimientos progresivos a través de niveles de aprendizaje, desde el mas elemental hasta el más avanzado.
Esta nueva entrega es un curso básico para todos aquellos que van empezando o que se han residido a tomar pinceles y lapices para crear sus propias obras. Durante el curso conocerán fundamentos esenciales para comprender y practicar el dibujo de perspectiva, dibujo de modelo, la pintura de bodegón, comprender el circulo cromatico, mezclar colores y emplear los ingredientes del oleo. También hay un par de ejercicios para realizar una pintura a partir de modelo humano, aprendiendo a respetar proporciones, formas y rasgos particulares, todo de la mano de un tutor, quien va explicando paso a paso la manera correcta de realizar los ejercicios correctamente para desarrollar habilidad y conocimientos, ademas de fortalecer el talento del estudiante.

????????????????????????????????????????????????????????????

Capturas de los Video-Cursos:












????????????????????????????????????????????????????????????

Caracteristicas del Video:

9 videos en total
Complete name                  : Curso practico de dibujo y pintura
Format                         : AVI
Format/Info                    : Audio Video Interleave
File size                      : 212 MiB x 9
Duration                       : 32mn 13s
x 9Overall bit rate               : 921 Kbps
ID                             : 0
Format                         : MPEG-4 Visual
Format settings, BVOP          : 1
Format settings, QPel          : No
Format settings, GMC           : No warppoints
Format settings, Matrix        : Default (H.263)
Muxing mode                    : Packed bitstream
Codec ID                       : DX50
Codec ID/Hint                  : DivX 5
Duration                       : 32mn 13s
Bit rate                       : 779 Kbps
Width                          : 720 pixels
Height                         : 480 pixels
Display aspect ratio           : 3:2
Frame rate                     : 29.970 fps
Standard                       : NTSC
Color space                    : YUV
Chroma subsampling             : 4:2:0
Bit depth                      : 8 bits
Scan type                      : Progressive
Compression mode               : Lossy
Bits/(Pixel*Frame)             : 0.075
Stream size                    : 180 MiB (85%)
Writing library                : DivX 6.8.3-6.8.4 (UTC 2008-06-07)

Audio
ID                             : 1
Format                         : MPEG Audio
Format version                 : Version 1
Format profile                 : Layer 3
Mode                           : Joint stereo
Mode extension                 : MS Stereo
Codec ID                       : 55
Codec ID/Hint                  : MP3
Duration                       : 32mn 13s
x 9Bit rate mode                  : Constant
Bit rate                       : 128 Kbps
Channel(s)                     : 2 channels
Sampling rate                  : 48.0 KHz
Compression mode               : Lossy
Stream size                    : 29.5 MiB (14%)
x 9Alignment                      : Aligned on interleaves
Interleave, duration           : 24 ms (0.72 video frame)
Writing library                : LAME3.96

????????????????????????????????????????????????????????????

Descarga: 1,96 GB (2.107.676.245 bytes) - 5 archivos *.rar



????????????????????????????????????????????????????????????

Como verán el video-curso es un poco viejo, pero es bueno para todos aquellos que van empezando y que tienen muchas ganas de aprender. Si hay problema con los links de descarga me avisan para arreglarlos.
Curso Práctico de Dibujo y Pintura - En Español
20 Puntos Score: 6.7/10
Visitas: 8237 Favoritos: 22
Ver los usuarios que votaron...
27 Comentarios Curso Práctico de Dibujo y Pintura - En Español
excelente aporte  
amigo y los videos 3 y 4 no existen o hay un error en el nombramiento de los videos? gracias nuevamente excelente curso
Cita Booster: Mostrar
que tal, hay un error en el nombramiento de los archivos, desde que consegu?
asi note gracias nuevamente amigo que excelente curso me cae del cielo pa aprender  
Gracias, Gracias, Gracias!
Muy bien! lo descargu?
no he podido descargarlo de 4shared, no finaliza las descargas y se vuelven a reiniciar de 0, sera que la sube a mega o putlocker, gracias
Dicen que estan mal los enlaces, pero gracias gracias
MUCHAS GRACIAS, por haberlo compartido con la comunidad, esto realmente me sirve como para mi crecimiento profesional e inter?
Gracias, podrias volver a subir la parte 5.
MUCHAS GRACIAS amigo por el tiempo y dedicaci?
hay 4 links amigo. si pudiese resubir el numero 5 agradeciria mil!
@edilmhn @edilmhn @elchristo @Darkmamn @Kenyio @Darkmamn @rabbid @partyclu ojala les guste el contenido del post, segun yo los links estan funcionando bien, lo probe y todo anda jalando bien, chequen porfavor
Es un excelente y oportuno curso...1000000puntos de un humilde novato pero son de coraz?
muy agradecido.... sigue as?
gracias un gran aporte  
Supongo que solo son 4 enlaces, ya que la ultima parte es de menor tama?
Es un gran curso, gracias.  
Para dejar un comentario Registrate! o.. eres ya usuario? Accede!