Sound City Doc. by Dave Grohl HD 1080p Subtitulado


Bueno, hola a todos, les traigo el tan esperado documental dirigido por Dave Grohl al fin subtitulado al español y en excelente calidad!!



Reseña: A través de entrevistas y actuaciones con los legendarios músicos y productores que trabajaron en el mayor y menos reconocido estudio de grabación de América, Sound City, el documental explora el factor humano de la música y el arte perdido de la grabación analógica en una mundo cada vez más digital. (FILMAFFINITY)



Informacion del video

      Format : MPEG-4
      Format profile : Base Media / Version 2
      Codec ID : mp42
      File size : 2.52 GiB
      Duration : 1h 47mn
      Overall bit rate mode : Variable
      Overall bit rate : 3 351 Kbps
      Encoded date : UTC 2013-01-25 21:51:33
      Tagged date : UTC 2013-01-25 23:49:19
      Writing application : HandBrake 5025svn 2012102201
   
   Video #1
      ID : 1
      Format : AVC
      Format/Info : Advanced Video Codec
      Format profile : [email protected]
      Format settings, CABAC : Yes
      Format settings, ReFrames : 4 frames
      Codec ID : avc1
      Codec ID/Info : Advanced Video Coding
      Duration : 1h 47mn
      Bit rate mode : Variable
      Bit rate : 3 187 Kbps
      Width : 1 920 pixels
      Height : 1 072 pixels
      Display aspect ratio : 16:9
      Original display aspect ratio : 16:9
      Frame rate mode : Variable
      Frame rate : 23.976 fps
      Minimum frame rate : 11.989 fps
      Maximum frame rate : 23.981 fps
      Color space : YUV
      Chroma subsampling : 4:2:0
      Bit depth : 8 bits
      Scan type : Progressive
      Bits/(Pixel*Frame) : 0.065
      Stream size : 2.40 GiB (95%)
      Writing library : x264 core 128
      
   Audio #2
      ID : 2
      Format : AAC
      Format/Info : Advanced Audio Codec
      Format profile : LC
      Codec ID : 40
      Duration : 1h 47mn
      Bit rate mode : Variable
      Bit rate : 159 Kbps
      Maximum bit rate : 365 Kbps
      Channel(s) : 2 channels
      Channel positions : Front: L R
      Sampling rate : 44.1 KHz
      Compression mode : Lossy
      Delay relative to video : -125ms
      Stream size : 122 MiB (5%)
      Language : English
      Subtitles: Spanish
      Encoded date : UTC 2013-01-25 21:51:33
      Tagged date : UTC 2013-01-25 23:49:19

Unas capturas hechas por mi:
















Son 2 Links de 1 gb cada uno y 1 de 613 mb




Mis Aportes!!

Discografia: Cage The Elephant (7 discos)

Te gusta Nirvana y Pink Floyd?Discografia Dead Confederate

Discografia: Foo Fighters (Dividida en 5 partes) 46 discos!!

Discografia: Bush (8 discos) (PostGrunge)

Pearl Jam Argentina 2011 Recital Completo!! (Video)

UltraMegaPost Pearl Jam Discografia (23 discos)

Discografia Completa Eddie Vedder (6 discos)




alanbaroni

Sound City Doc. by Dave Grohl HD 1080p Subtitulado
11 Puntos Score: 5.5/10
Visitas: 9390 Favoritos: 11
Ver los usuarios que votaron...
22 Comentarios Sound City Doc. by Dave Grohl HD 1080p Subtitulado
gracias amigo!!  
gracias muy buen documental
@alanbaroni Mil gracias amigo, ya lo descargue te dejo 10...    
gracias!!! gran aporte
no tenes los subtitulos por separado? los necesito para tenerlos en srt, baje unos de internet y me salen desincronizados..
@axlrosegun @creep16 gracias a ustedes por pasar y por los puntos
@Rocastillo no, lamentablemente no los tengo :/ pero en cualquier momento tienen que salir bien sincronizados
la parte 3 me tira error y no lo puedo descargar
@membright mira, es raro...yo recien lo descargue sin problema...intenta de nuevo, usando JDownloader o IDM
muchas gracias x el aporte amigo se ve hermoso cn una calidad re linda y los subtitulos son buenisimos...Saludos
@tallica30 la verdad que la calidad es excelente y el documental esta MUY bueno...que lo disfrutes y gracias por comentar
amm disculpa ammm no lo podr?
@Sora_link siempre tuve problemas para subir a putlocker...aparte no se que problemas podes tener con mega para descargar, no tiene ninguna dificultad
Muchas gracias, excelente aporte!!
muchas gracias por tu aporte!!!!        
gracias por el aporte es magnifico, sube nuevamente la discografia de foo fighters por favor.
aportazo amigo, se agradece  
Muchas gracias!!!
Para dejar un comentario Registrate! o.. eres ya usuario? Accede!