The Last Tycoon 2012 720p [Mandarín][Sub][Mega]

The Last Tycoon 2012 720p [Mandarín][Sub][Mega]

Saludos, bienvenidos a mi nuevo post.

Esta vez traigo una peli extranjera la cual me tomó un buen rato hacer los subtítulos, latinizarlos y hacerlos entendibles.

Espero sepan valorar mi esfuerzo.

















Sinopsis

Situada en la era del gángster de Shangai en el año 1900, El último magnate (The Last Tycoon) cuenta la historia de Cheng (Chow Yun-Fat), un joven que es engañado por el jefe de la policía (Sammo Hung) y tiene que abandonar la vida que conoce y a Qui (Monica Mok), la mujer que ama, para empezar de nuevo. Después de escapar de la prisión Cheng rápida y violentamente se abre camino hasta la cima del mundo criminal de Shangai para convertirse en uno de los jefes de la mafia más poderosa en la historia de Shangai. Pero la fama y notoriedad le pasan factura cuando Cheng se encuentra atrapado entre el ejército japonés y el servicio secreto intrigante local. La situación se agrava cuando se reencuentra con el amor de su vida Qui, junto con su marido escritor. ¿Se reavivara el amor en el crepúsculo de una época?


Director: Jing Wong
Escritores: Koon-nam Lui, Jing Wong
Protagonistas: Yun-Fat Chow, Xiaoming Huang, Sammo Hung Kam-Bo 

Género:  Acción, aventura, drama



Overall bit rate               : 3 134 Kbps
Encoded date                   : UTC 2013-03-17 08:08:59
Writing application            : mkvmerge v4.0.0 ('The Stars were mine') built on Jun  6 2010 16:18:42
Writing library                : libebml v1.0.0 + libmatroska v1.0.0

Video
ID                             : 1
Format                         : AVC
Format/Info                    : Advanced Video Codec
Format profile                 : [email protected]
Format settings, CABAC         : Yes
Format settings, ReFrames      : 9 frames
Codec ID                       : V_MPEG4/ISO/AVC
Duration                       : 1h 58mn
Bit rate                       : 2 687 Kbps
Width                          : 1 280 pixels
Height                         : 536 pixels
Display aspect ratio           : 2.40:1
Frame rate mode                : Constant
Frame rate                     : 24.000 fps
Color space                    : YUV
Chroma subsampling             : 4:2:0
Bit depth                      : 8 bits
Scan type                      : Progressive
Bits/(Pixel*Frame)             : 0.163
Stream size                    : 2.18 GiB (84%)
Language                       : Chinese
Default                        : Yes
Forced                         : No

Audio
ID                             : 2
Format                         : AC-3
Format/Info                    : Audio Coding 3
Mode extension                 : CM (complete main)
Format settings, Endianness    : Big
Codec ID                       : A_AC3
Duration                       : 1h 58mn
Bit rate mode                  : Constant
Bit rate                       : 448 Kbps
Channel(s)                     : 6 channels
Channel positions              : Front: L C R, Side: L R, LFE
Sampling rate                  : 48.0 KHz
Bit depth                      : 16 bits
Compression mode               : Lossy
Stream size                    : 381 MiB (14%)
Language                       : Chinese
Default                        : Yes
Forced                         : No

Text
ID                             : 3
Format                         : UTF-8
Codec ID                       : S_TEXT/UTF8
Codec ID/Info                  : UTF-8 Plain Text
Language                       : English
Default                        : Yes
Forced                         : No

Menu
00:00:00.000                   : en:Chapter 1
00:12:10.167                   : en:Chapter 2
00:21:36.500                   : en:Chapter 3
00:31:10.458                   : en:Chapter 4
00:42:06.292                   : en:Chapter 5
00:50:51.750                   : en:Chapter 6
01:01:43.208                   : en:Chapter 7
01:08:22.792                   : en:Chapter 8
01:20:06.708                   : en:Chapter 9
01:30:51.167                   : en:Chapter 10
01:38:51.833                   : en:Chapter 11
01:48:51.667                   : en:Chapter 12








Enlaces De Descarga


Subtitulos 


The Last Tycoon 2012 720p [Mandarín][Sub][Mega]
30 Puntos Score: 10/10
Visitas: 1346 Favoritos: 2
Ver los usuarios que votaron...
9 Comentarios The Last Tycoon 2012 720p [Mandarín][Sub][Mega]
...MMM SE VE BUENA... GRACIAS...
x el esfuerzo y la buena peli por lo leido, gracias! +10
gracias manito  :
Link caido.. amigo por favor subela de nuevo..

saludos
Para dejar un comentario Registrate! o.. eres ya usuario? Accede!