The wicked 2013 [EN][Sub]

The wicked 2013 [EN][Sub]

Saludos, les traigo una película de terror para el fin de semana.  Me costó mucho trabajo los subtítulos de esta peli que personalmente encuentro, digamos; aceptable.  Para ver la calidad de imagen descarguen una muestra de video aqui














Sinopsis

"Durante el equinoccio de primavera,la bruja acosa su presa. Un alma menos en la ciudad para conocer, tomada en contra de su voluntad." 

Es un cuento que casi todos los niños de la pequeña ciudad de Summerset ha escuchado. Una tonta historia transmitida de generación en generación, que cuenta con tan sólo los escalofríos suficientes para mantener viva la leyenda. Este año es diferente. Amanda Drake de siete años es sustraida desde la ventana de su dormitorio. Los rumores vuelan. La bruja ha vuelto. Con el fin de obtener un buen susto y la oportunidad de impresionar a las chicas, Zach de 18 años y sus amigos deciden entrar a escondidas en el bosque y encontrar la misteriosa casa antigua donde la bruja legendaria supuestamente vive. Sin el conocimiento de Zach, su hermano menor Max y su "novia" Sammy los acompañan secretamente en la aventura. Todos ellos pronto descubren que el folclore no siempre es mito y que a veces los cuentos se hacen realidad. La bruja ha regresado, decidida a lanzar sus hechizos mágicos para engañar, cazar y definitivamente comer los niños del lugar (los más pequeños para mantenerse joven, los mayores para mantener sus fuerzas y las hermosas para mantenerla belleza. Zach y Max, que no se soportan, y sus amigos adolescentes se encuentran atrapados en la guarida de la Bruja. Ellos deben enterrar sus diferencias o ser enterrados. No hay escape de "The Wicked" una vez que el hechizo ha sido lanzado.


Director: Peter Winther
Escritor: Michael Vickerman
Protagonistas: Devon Werkheiser, Justin Deeley, Nicole Forester
Género:  Terror, drama



Format                         : AVI
Format/Info                    : Audio Video Interleave
File size                      : 1.40 GiB
Duration                       : 1h 40mn
Overall bit rate               : 1 990 Kbps

Video
ID                             : 0
Format                         : MPEG-4 Visual
Format profile                 : Advanced [email protected]
Format settings, BVOP          : 2
Format settings, QPel          : No
Format settings, GMC           : No warppoints
Format settings, Matrix        : Default (H.263)
Codec ID                       : XVID
Codec ID/Hint                  : XviD
Duration                       : 1h 40mn
Bit rate                       : 1 534 Kbps
Width                          : 720 pixels
Height                         : 400 pixels
Display aspect ratio           : 16:9
Frame rate                     : 25.000 fps
Color space                    : YUV
Chroma subsampling             : 4:2:0
Bit depth                      : 8 bits
Scan type                      : Progressive
Compression mode               : Lossy
Bits/(Pixel*Frame)             : 0.213
Stream size                    : 1.08 GiB (77%)
Writing library                : XviD 1.2.1 (UTC 2008-12-04)

Audio
ID                             : 1
Format                         : AC-3
Format/Info                    : Audio Coding 3
Mode extension                 : CM (complete main)
Format settings, Endianness    : Big
Codec ID                       : 2000
Duration                       : 1h 40mn
Bit rate mode                  : Constant
Bit rate                       : 448 Kbps
Channel(s)                     : 6 channels
Channel positions              : Front: L C R, Side: L R, LFE
Sampling rate                  : 48.0 KHz
Bit depth                      : 16 bits
Compression mode               : Lossy
Stream size                    : 322 MiB (23%)
Alignment                      : Aligned on interleaves
Interleave, duration           : 64 ms (1.60 video frames)
Interleave, preload duration   : 192 ms
Title                          : VTS_01_1 T89 DELAY 0ms








Enlaces De Descarga


Subtitulos 


The wicked 2013 [EN][Sub]
0 Puntos Score: 0/10
Visitas: 1367 Favoritos: 5
4 Comentarios The wicked 2013 [EN][Sub]
Gracias por el esfuerzo, estaba esperando los subs, buena calidad de imagen para ser dvd rip  
Ojala no sea grabado del cine y con audio de cine... Tengo un internet de mierda, esta pelicula me bajara en una noche entera, y la verdad no da gusto bajar toda la noche una peli y que sea mala calidad en audio y video.
@esparrow amigo, es dvdrip... todo el post es propio...
Cita agamboat: Mostrar
Ok, veo que tambien soles bajar de donde yo suelo bajar   peliculas y series  
Para dejar un comentario Registrate! o.. eres ya usuario? Accede!