Los Vengadores m2ts HD [MEGA]

Los Vengadores





Esta Vez Les traigo la película de los vengadores se que esta película esta como mil veces publicada pero  yo queria ver la en la ps3 en HD y los unicos formatos HD era el mkv  o en avi pero en ese formato pesa en 5 GB O 7 GB también habia visto en este formato la película pero de 4GB, y busque alguna forma y la encontré y conseguí cambiar el formato sin aumentar tanto peso  y  aquí esta el resultado espero les agrade.






Format                                   : BDAV
Format/Info                              : Blu-ray Video
File size                                : 2.49 GiB
Duration                                 : 2h 22mn
Overall bit rate mode                    : Variable
Overall bit rate                         : 2 492 Kbps
Maximum Overall bit rate                 : 35.5 Mbps

Video
ID                                       : 4113 (0x1011)
Menu ID                                  : 1 (0x1)
Format                                   : AVC
Format/Info                              : Advanced Video Codec
Format profile                           : [email protected]
Format settings, CABAC                   : Yes
Format settings, ReFrames                : 4 frames
Codec ID                                 : 27
Duration                                 : 2h 22mn
Bit rate mode                            : Variable
Bit rate                                 : 2 104 Kbps
Maximum bit rate                         : 40.0 Mbps
Width                                    : 1 920 pixels
Height                                   : 1 080 pixels
Display aspect ratio                     : 16:9
Frame rate                               : 23.976 fps
Color space                              : YUV
Chroma subsampling                       : 4:2:0
Bit depth                                : 8 bits
Scan type                                : Progressive
Bits/(Pixel*Frame)                       : 0.042
Stream size                              : 2.19 GiB (88%)
Writing library                          : x264 core 125 r2200 
Audio
ID                                       : 4352 (0x1100)
Menu ID                                  : 1 (0x1)
Format                                   : AC-3
Format/Info                              : Audio Coding 3
Mode extension                           : CM (complete main)
Format settings, Endianness              : Big
Codec ID                                 : 129
Duration                                 : 2h 22mn
Bit rate mode                            : Constant
Bit rate                                 : 192 Kbps
Channel(s)                               : 2 channels
Channel positions                        : Front: L R
Sampling rate                            : 48.0 KHz
Bit depth                                : 16 bits
Compression mode                         : Lossy
Stream size                              : 196 MiB (8%)
Language                                 : Spanish









Las Capturas son propias.



Enlaces De Descarga

sin pass





Los Vengadores m2ts HD [MEGA]
35 Puntos Score: 8.8/10
Visitas: 18420 Favoritos: 3
Ver los usuarios que votaron...
22 Comentarios Los Vengadores m2ts HD [MEGA]
es latino o espa?
@Josue0998 @Mr_Movies @luis2011 gracias por los punto y comentar y es audio latino
Te hago una consulta... quizas sea mi PC. Pero que formato es ese m2ts ? con que me aconsejas reproducirlo? ya que en mis reproductores algunos reproducen audio, y otros solo video. GRACIAS.
@chopii podrias utilizar TotalMedia Theatre 6 es buenazo para los arhivos en HD , Blueray y 3d.... lo recomiendo
Que buena calidad !  
Cita chopii: Mostrar
Bueno, es un formato para video en alta definici?
@golgo_13 investigando! me puse a bajar el totalmendia, y ahora el bsplayer... vamos a ver si me funciona! GRACIAS!
@chopii bueno el bsplayer pro, cuando lo instalas (debes estar conectado al internet), se conecta y descarga los codecs que necesites suerte  
deotra forma ve al link que te di, seguro con eso solucionas, no hay fallo.
ya la tengo pero buen post, se agradece.
@todocad @davdevel @golgo_13 @jgx27 bueno antes que nada gracias por los punto y por comentar y @chopii  ya  la convertir para la ps3 pero en la pc la veo con K-Lite Codec Pack es facil de instalar hay muchos post que lo tiene no sera un problema encontrarlo
 
@francrack Grande frank! no me da la categoria sino te daria los Pts
el mejor reproductor para el formato m2ts es el splash pro lo recomiendo para ver hd  
AMIGO TE PODRIA PEDIR UN FAVOR SI ES QUE PUEDES SUBIR EL AUDIO PAA VER COMO SE ESCUCHA XQ YOU LA TENGO A LA PELI PERO EL AUDIO LAS VOCES SE ESCUCHA DESPACIO Y LOS EFECTOS MUY FUERTERS X ESO QUIERO PROVAR CON ESE AUDIO AVER QUE SI ESCUCHA BIEN
alguien tiene la version extendida
gracias, buen aporte...
era lo que buscaba gracias  
Para dejar un comentario Registrate! o.. eres ya usuario? Accede!