Barbie in The Pink Shoes 2013[BDRip 1080p]



Barbie in The Pink Shoes 2013
BDRip 1080p | Audio Dual Latino Castellano AC3 5.1 | 1.31 Gb


Una aventura mágica junta a Barbie con Kristyn, una bailarina con grandes sueños. Cuando se pone unas brillantes zapatillas rosas, ella y su mejor amiga, Hailey, se ven transportadas a un fantástico mundo de danza. Allí Kristyn descubre que ha de bailar sus ballets preferidos para vencer a la diabólica Reina de la Nieve.


Datos de la Pelicula
TÍTULO ORIGINAL Barbie in The Pink Shoes
TITULO EN ESPAÑOL Barbie en La bailarina mágica (Barbie y las zapatillas mágicas)
AÑO 2013
DURACIÓN 75 min.
PAÍS Estados Unidos
DIRECTOR Owen Hurley
GUIÓN Alison Taylor
MÚSICA Jim Dooley
FOTOGRAFÍA Animation
REPARTO Animation
PRODUCTORA Mainframe Entertainment / Mattel
GÉNERO Animación. Infantil

Info Codificacion
General


Complete name : barbie.1080p.BDRip.Dual.cat.lat..by.almacervecera.mkv
Format : Matroska
Format version : Version 2
File size : 1.31 GiB
Duration : 1h 14mn
Overall bit rate : 2 501 Kbps
Movie name : barbie.1080p.BDRip.Dual.cat.lat..by.almacervecera
Encoded date : UTC 2013-03-14 20:26:57
Writing application : mkvmerge v3.4.0 (‘Rapunzel’) built on May 15 2010 09:38:20
Writing library : libebml v0.8.0 + libmatroska v0.9.0

Video
ID : 1
Format : AVC
Format/Info : Advanced Video Codec
Format profile : [email protected]
Format settings, CABAC : Yes
Format settings, ReFrames : 6 frames
Codec ID : V_MPEG4/ISO/AVC
Duration : 1h 14mn
Bit rate : 1 811 Kbps
Width : 1 920 pixels
Height : 1 088 pixels
Display aspect ratio : 16:9
Frame rate mode : Constant
Frame rate : 23.976 fps
Color space : YUV
Chroma subsampling : 4:2:0
Bit depth : 8 bits
Scan type : Progressive
Bits/(Pixel*Frame) : 0.036
Stream size : 969 MiB (72%)
Title : by almacervecera
Writing library : x264 core 120
Language : English
Default : Yes
Forced : No
Color primaries : BT.709
Transfer characteristics : BT.709
Matrix coefficients : BT.709

Audio #1

ID : 2
Format : AC-3
Format/Info : Audio Coding 3
Mode extension : CM (complete main)
Format settings, Endianness : Big
Codec ID : A_AC3
Duration : 1h 14mn
Bit rate mode : Constant
Bit rate : 320 Kbps
Channel(s) : 6 channels
Channel positions : Front: L C R, Side: L R, LFE
Sampling rate : 48.0 KHz
Bit depth : 16 bits
Compression mode : Lossy
Stream size : 171 MiB (13%)
Title : by almacervecera
Language : Spanish Latino
Default : Yes
Forced : No

Audio #2
ID : 3
Format : AC-3
Format/Info : Audio Coding 3
Mode extension : CM (complete main)
Format settings, Endianness : Big
Codec ID : A_AC3
Duration : 1h 14mn
Bit rate mode : Constant
Bit rate : 320 Kbps
Channel(s) : 6 channels
Channel positions : Front: L C R, Side: L R, LFE
Sampling rate : 48.0 KHz
Bit depth : 16 bits
Compression mode : Lossy
Stream size : 171 MiB (13%)
Title : by almacervecera
Language : Spanish Castellano
Default : No
Forced : No

Menu
00:00:00.000 : en:Chapter 1
00:05:39.756 : en:Chapter 2
00:12:24.535 : en:Chapter 3
00:16:01.502 : en:Chapter 4
00:29:20.675 : en:Chapter 5
00:32:08.760 : en:Chapter 6
00:40:03.359 : en:Chapter 7
00:48:01.169 : en:Chapter 8
00:54:29.849 : en:Chapter 9
00:59:34.362 : en:Chapter 10
01:03:44.987 : en:Chapter 11
01:06:49.255 : en:Chapter 12
01:14:38.765 : en:Chapter 13

Capturas















Sin contraseña | Facil Extraction |  Links Intercambiables

Barbie in The Pink Shoes 2013[BDRip 1080p]
10 Puntos Score: 10/10
Visitas: 1842 Favoritos: 2
Ver los usuarios que votaron...
13 Comentarios Barbie in The Pink Shoes 2013[BDRip 1080p]
gracias , a mi hijita le gustan estas pelis.
De verdad que si, estos aportes valen oro, pues nuestras hijas disfrutan viendo estas peliculas. Gracias amigo   Te dejara puntos, pero no tengo donde caer muerto!
me alegro, que les sea util esta pelicula para entretener a los pequeños demonios XD, por eso me tome el trabajo de sacarla con audio latino y castellano , asi habarca para mas padres de mas paises, que son torturados por sus pequeñas demonios, saludos a todos los papas que les toca criar hijas mujeres, de un papa que solo tubo machitos LOL
This direct link will be available for your IP next 4 hours
Siempre me pasa cuando quiero descargar de Billion Uploads....
Tienes algun otro link intercambiable? Me falta la parte 1
La parte 1 no me deja descargar!
Excelente aporte, lastima de servidor,
Cita darkaka: Mostrar
fijate en el otro enlace tenes bitshare y uploaded que es el mejor, saludos
exelente para mis sobrinas ,  
pero no puedo ver los links me los pasa serias tan amable
revisa los link, p favor, todos tenemos el mismo problema, imposible bajarla completa, se agradece, saludos
@xhyruja "fijate en el otro enlace tenes bitshare y uploaded que es el mejor, saludos" tampoco funciona, no da los enlaces para poder descargar  
  buenaaaaa!!!!
Cita nikitaa: Mostrar
entonces tenes un problema vos en tu maquina, los enlaces estan funcionando muy bien, de echo tienen muchas descargas, asi que el problema es evidentemente tuyo, saludos
Para dejar un comentario Registrate! o.. eres ya usuario? Accede!