Oops.. Este post tiene los enlaces eliminados!

Identi revisa las denuncias de los usuarios en busca de enlaces eliminados que no dejan descargar los archivos, este mensaje te informa que este post que estas viendo tiene los enlaces eliminados.

Usa el Buscador

Por favor, te recomendamos que uses el buscador para encontrar más alternativas.

Piranhaconda 2011 DVDRip [EN][Sub]

  • Categoría: Reciclaje
  • Publicado hace más de 3 años
Piranhaconda 2011 DVDRip [EN][Sub]
















Format                         : AVI
Format/Info                    : Audio Video Interleave
File size                      : 699 MiB
Duration                       : 1h 22mn
Overall bit rate mode          : Variable
Overall bit rate               : 1 184 Kbps

Video
ID                             : 0
Format                         : MPEG-4 Visual
Format profile                 : Advanced [email protected]
Format settings, BVOP          : 2
Format settings, QPel          : No
Format settings, GMC           : No warppoints
Format settings, Matrix        : Default (H.263)
Codec ID                       : XVID
Codec ID/Hint                  : XviD
Duration                       : 1h 22mn
Bit rate                       : 1 052 Kbps
Width                          : 640 pixels
Height                         : 352 pixels
Display aspect ratio           : 16:9
Frame rate                     : 25.000 fps
Color space                    : YUV
Chroma subsampling             : 4:2:0
Bit depth                      : 8 bits
Scan type                      : Progressive
Compression mode               : Lossy
Bits/(Pixel*Frame)             : 0.187
Stream size                    : 621 MiB (89%)
Writing library                : XviD 1.2.1 (UTC 2008-12-04)

Audio
ID                             : 1
Format                         : MPEG Audio
Format version                 : Version 1
Format profile                 : Layer 3
Mode                           : Joint stereo
Mode extension                 : MS Stereo
Codec ID                       : 55
Codec ID/Hint                  : MP3
Duration                       : 1h 22mn
Bit rate mode                  : Variable
Bit rate                       : 119 Kbps
Nominal bit rate               : 128 Kbps
Channel(s)                     : 2 channels
Sampling rate                  : 48.0 KHz
Compression mode               : Lossy
Stream size                    : 70.2 MiB (10%)
Alignment                      : Aligned on interleaves
Interleave, duration           : 24 ms (0.60 video frame)
Interleave, preload duration   : 133 ms
Title                          : fico-piranhaconda T80 3_2ch 448Kbps DELAY 0ms
Writing library                : LAME3.99r
Encoding settings              : -m j -V 4 -q 2 -lowpass 17 --abr 128








Enlaces De Descarga


Subtitulos

Piranhaconda 2011 DVDRip [EN][Sub]
5 Puntos Score: 5/10
Visitas: 1616 Favoritos: 4
Ver los usuarios que votaron...
20 Comentarios Piranhaconda 2011 DVDRip [EN][Sub]
jajaja se ve que esta bien vaciada gracias amigo bajando
no te preocupes amigo el chiste es compartir  
Cita agamboat: Mostrar
gracias por compartir, algo para entretener o lamentar, pero pasara tiempo de mi vida un poco mas r?
@zombyk ja ja ja buena my friend... Gracias por los puntos  
@agamboat    Amigo, no se que pasa que no me deja ver los links, ya le di f5 y reinice la pc y sigo igual
@-franky- revisa bien tu Java y Flash a ver si estan actualizados...
Deja le doy un vistazo y regreso
http://www.java.com/es/download/testjava.jsp

http://get.adobe.com/es/flashplayer/

Por ultimo revisa si tu navegador esta actualizado tambien, preferiblemente mozilla firefox o chrome@-franky-
Ya actualice Java, y sigo mal. Uso el avast IS pero ayer por la noche todo funcionaba correctamente, voy a probar con el explorer y a instalar el mozilla, si con esos navegadores si veo los links borro el crome y lo reinstalo, regreso. Gracias
@-franky- te puedo pasar el link pero si no te funciona te va a dar lata con todos los post mejor que trater de corregirlo.  Me avisas si necesitas el link...
Ya funciona de nuevo, solo era el adblock, pero no se porque pues estaba funcionando bien. Gracias por la peli  
jajaja no manches se mira bien feota pero gracias por compartir la descargare de todos modos jaja no hay nada mas que hacer xD
@ANARKIAx gracias por tu comentario.  Desgraciadamente, ten?
Este tipo de peliculas, lejos de causar miedo dan Risa, la voy a descargar y les cuento despu?
Si alguien vive al final es PHOTOSHOP!!!!!!!!!!!!!!!!!!!!!!!!!!!!!!!!!!
Para dejar un comentario Registrate! o.. eres ya usuario? Accede!