El hombre de tu vida.Temporada 1.En HD.(Mega)

  • Categoría: Televisión
  • Publicado hace más de 3 años



El hombre de tu vida - Temporada 1 - Episodios en HD 1440x1080


Bueno gente aca les traigo esta excelente serie, grabada, recodificada y subida por mi, a excepcion de los capitulos 1 y 2, que fueron grabados por otro usuario, pero si fueron subidos por mi. Todos los capitulos estan en 1440x1080, y si bien cada capitulo pesa bastante lo hize asi para conservar la calidad, no se quejen que yo tube que subirlos con 512k de subida xd.

Realmente les recomiendo esta serie, y les advierto, este post esta dedicado a los que quieren ver la serie con calidad, si vas a entrar y vas a bardear porque los capitulos pesan mucho, ahorrate esos segundos y usalos para ir a youtube y verlo con calidad vhs. Aviso!





Es la historia de Hugo Bermúdez (Guillermo Francella), un hombre común y corriente, trabajador, honesto y padre abnegado de un adolescente al que crió solo, pero está a punto de descubrirse como el objeto de amor de cientos de mujeres.
 
Afectado por la crisis de la mediana edad, desempleado y herido emocionalmente, Hugo acepta, presionado, trabajar en la empresa ?El amor de tu vida? un microemprendimiento criollo, invento de su prima Gloria (Mercedes Morán), en donde estafa a hombres y mujeres prometiéndoles encontrarles pareja, a cambio de un pago por los servicios.
 
Pero la tarea no es nada simple, llaman más mujeres que hombres, por lo que la empresa contrata a Hugo para que sea el hombre ideal comodín. Interpretando diferentes personalidades masculinas y teniendo en cuenta los deseos de las clientes, acude a las citas no solo con un nombre y aspecto distinto, lleva un propósito oculto: que las mujeres se deslumbren con él en un principio pero terminen desilusionadas y pidan a otro hombre o desistan de la tarea.
 
Con cada mujer, llega una historia emocional diferente que lo atraviesa y lo lleva a involucrarse para ayudar a resolver el conflicto de la dama en cuestión. Ejercer esta tarea, lo ayuda también a enfrentarse con los fantasmas de su vida.














Aclaracion: Son unas capturas al azar, de capitulos de temporadas mezcladas, no voy a subir capturas de cada capitulo porque el post no cargaria mas, pero la calidad es similar para todos los capitulos.




Y ahora viene la posta...... la primera temporada tiene 13 capitulos.....

S01E01

Info:
General
Unique ID                                : 125441231473405081835240731807559876320 (0x5E5F1A3698295992770779C63C8A7EE0)
Complete name                            : E:SeriesHombre de tu vida[El hombre de tu vida][Espisodio 1][1280x720]BY LEAN946.mkv
Format                                   : Matroska
Format version                           : Version 2
File size                                : 1.08 GiB
Duration                                 : 44mn 13s
Overall bit rate                         : 3 492 Kbps
Encoded date                             : UTC 2011-07-18 20:50:57
Writing application                      : gdsmux
Writing library                          : Haali DirectShow Matroska Muxer 1.10.262.12

Video
ID                                       : 1
Format                                   : AVC
Format/Info                              : Advanced Video Codec
Format profile                           : [email protected]
Format settings, CABAC                   : Yes
Format settings, ReFrames                : 4 frames
Codec ID                                 : V_MPEG4/ISO/AVC
Bit rate                                 : 3 331 Kbps
Width                                    : 1 280 pixels
Height                                   : 720 pixels
Display aspect ratio                     : 16:9
Frame rate mode                          : Variable
Color space                              : YUV
Chroma subsampling                       : 4:2:0
Bit depth                                : 8 bits
Scan type                                : Progressive
Writing library                          : x264 core 112
Encoding settings                        : cabac=1 / ref=2 / deblock=1:0:0 / analyse=0x1:0x111 / me=hex / subme=6 / psy=1 / psy_rd=1.00:0.00 / mixed_ref=0 / me_range=16 / chroma_me=1 / trellis=0 / 8x8dct=0 / cqm=0 / deadzone=21,11 / fast_pskip=1 / chroma_qp_offset=-2 / threads=3 / sliced_threads=0 / nr=0 / decimate=1 / interlaced=0 / constrained_intra=0 / bframes=2 / b_pyramid=2 / b_adapt=1 / b_bias=0 / direct=1 / weightb=0 / open_gop=0 / weightp=2 / keyint=250 / keyint_min=24 / scenecut=40 / intra_refresh=0 / rc_lookahead=40 / rc=2pass / mbtree=1 / bitrate=3331 / ratetol=1.0 / qcomp=0.60 / qpmin=3 / qpmax=51 / qpstep=4 / cplxblur=20.0 / qblur=0.5 / ip_ratio=1.40 / aq=1:1.00
Default                                  : No
Forced                                   : No

Audio
ID                                       : 2
Format                                   : AC-3
Format/Info                              : Audio Coding 3
Mode extension                           : CM (complete main)
Format settings, Endianness              : Big
Muxing mode                              : Header stripping
Codec ID                                 : A_AC3
Duration                                 : 44mn 13s
Bit rate mode                            : Constant
Bit rate                                 : 160 Kbps
Channel(s)                               : 2 channels
Channel positions                        : Front: L R
Sampling rate                            : 48.0 KHz
Bit depth                                : 16 bits
Compression mode                         : Lossy
Stream size                              : 50.6 MiB (5%)
Language                                 : Spanish
Default                                  : No
Forced                                   : No

Links:




S01E02


Info:
General
Unique ID                                : 28990290829385362302258787924375933456 (0x15CF53B10F85679AB289185E2FCE9210)
Complete name                            : E:SeriesHombre de tu vidaEl.Hombre.De.Tu.Vida.ep02.720p[LeaN946].mkv
Format                                   : Matroska
Format version                           : Version 2
File size                                : 1.08 GiB
Duration                                 : 45mn 46s
Overall bit rate                         : 3 372 Kbps
Writing application                      : HandBrake 0.9.5
Writing library                          : libmkv 0.6.4.1

Video
ID                                       : 1
Format                                   : AVC
Format/Info                              : Advanced Video Codec
Format profile                           : [email protected]
Format settings, CABAC                   : Yes
Format settings, ReFrames                : 4 frames
Codec ID                                 : V_MPEG4/ISO/AVC
Bit rate                                 : 3 207 Kbps
Width                                    : 1 280 pixels
Height                                   : 720 pixels
Display aspect ratio                     : 16:9
Frame rate mode                          : Variable
Color space                              : YUV
Chroma subsampling                       : 4:2:0
Bit depth                                : 8 bits
Scan type                                : Progressive
Writing library                          : x264 core 112
Encoding settings                        : cabac=1 / ref=3 / deblock=1:0:0 / analyse=0x3:0x113 / me=hex / subme=7 / psy=1 / psy_rd=1.00:0.00 / mixed_ref=1 / me_range=16 / chroma_me=1 / trellis=1 / 8x8dct=1 / cqm=0 / deadzone=21,11 / fast_pskip=1 / chroma_qp_offset=-2 / threads=3 / sliced_threads=0 / nr=0 / decimate=1 / interlaced=0 / constrained_intra=0 / bframes=3 / b_pyramid=2 / b_adapt=2 / b_bias=0 / direct=1 / weightb=1 / open_gop=0 / weightp=2 / keyint=250 / keyint_min=24 / scenecut=40 / intra_refresh=0 / rc_lookahead=50 / rc=2pass / mbtree=1 / bitrate=3207 / ratetol=1.0 / qcomp=0.60 / qpmin=3 / qpmax=51 / qpstep=4 / cplxblur=20.0 / qblur=0.5 / ip_ratio=1.40 / aq=1:1.00
Language                                 : English
Default                                  : Yes
Forced                                   : No
Color primaries                          : BT.709
Transfer characteristics                 : BT.709
Matrix coefficients                      : BT.709

Audio
ID                                       : 2
Format                                   : AC-3
Format/Info                              : Audio Coding 3
Mode extension                           : CM (complete main)
Format settings, Endianness              : Big
Codec ID                                 : A_AC3
Duration                                 : 45mn 46s
Bit rate mode                            : Constant
Bit rate                                 : 160 Kbps
Channel(s)                               : 2 channels
Channel positions                        : Front: L R
Sampling rate                            : 48.0 KHz
Bit depth                                : 16 bits
Compression mode                         : Lossy
Stream size                              : 52.4 MiB (5%)
Language                                 : English
Default                                  : Yes
Forced                                   : No



Links:



S01E03

Info:
General
Complete name                            : E:SeriesHombre de tu vida[El hombre de tu vida][S01E03][1440x1080][H264] by Rey_Xeneise-gearl23-DreamTheatre.mp4
Format                                   : MPEG-4
Format profile                           : Base Media / Version 2
Codec ID                                 : mp42
File size                                : 1.49 GiB
Duration                                 : 47mn 23s
Overall bit rate mode                    : Variable
Overall bit rate                         : 4 491 Kbps
Encoded date                             : UTC 2011-08-02 13:51:02
Tagged date                              : UTC 2011-08-02 13:51:02

Video
ID                                       : 1
Format                                   : AVC
Format/Info                              : Advanced Video Codec
Format profile                           : [email protected]
Format settings, CABAC                   : Yes
Format settings, ReFrames                : 3 frames
Codec ID                                 : avc1
Codec ID/Info                            : Advanced Video Coding
Duration                                 : 47mn 23s
Bit rate mode                            : Variable
Bit rate                                 : 4 393 Kbps
Maximum bit rate                         : 6 000 Kbps
Width                                    : 1 440 pixels
Height                                   : 1 080 pixels
Display aspect ratio                     : 4:3
Original display aspect ratio            : 16:9
Frame rate mode                          : Constant
Frame rate                               : 25.000 fps
Standard                                 : PAL
Color space                              : YUV
Chroma subsampling                       : 4:2:0
Bit depth                                : 8 bits
Scan type                                : Interlaced
Scan order                               : Top Field First
Bits/(Pixel*Frame)                       : 0.113
Stream size                              : 1.45 GiB (98%)
Language                                 : English
Encoded date                             : UTC 2011-08-02 13:51:03
Tagged date                              : UTC 2011-08-02 13:51:03
Color primaries                          : BT.709
Transfer characteristics                 : BT.709
Matrix coefficients                      : BT.709

Audio
ID                                       : 2
Format                                   : AAC
Format/Info                              : Advanced Audio Codec
Format profile                           : LC
Codec ID                                 : 40
Duration                                 : 47mn 23s
Bit rate mode                            : Variable
Bit rate                                 : 93.9 Kbps
Maximum bit rate                         : 151 Kbps
Channel(s)                               : 2 channels
Channel positions                        : Front: L R
Sampling rate                            : 48.0 KHz
Compression mode                         : Lossy
Stream size                              : 31.8 MiB (2%)
Language                                 : English
Encoded date                             : UTC 2011-08-02 13:51:04
Tagged date                              : UTC 2011-08-02 13:51:04



Links:



S01E04

Info:
General
Complete name                            : E:SeriesHombre de tu vida[El hombre de tu vida][S01E04][1440x1080][H264] by Rey_xeneise-gearl23-dreamheatre.mp4
Format                                   : MPEG-4
Format profile                           : Base Media / Version 2
Codec ID                                 : mp42
File size                                : 1.18 GiB
Duration                                 : 48mn 5s
Overall bit rate mode                    : Variable
Overall bit rate                         : 3 511 Kbps
Encoded date                             : UTC 2011-08-08 15:13:45
Tagged date                              : UTC 2011-08-08 15:13:45

Video
ID                                       : 1
Format                                   : AVC
Format/Info                              : Advanced Video Codec
Format profile                           : [email protected]
Format settings, CABAC                   : Yes
Format settings, ReFrames                : 3 frames
Codec ID                                 : avc1
Codec ID/Info                            : Advanced Video Coding
Duration                                 : 48mn 5s
Bit rate mode                            : Variable
Bit rate                                 : 3 413 Kbps
Maximum bit rate                         : 5 000 Kbps
Width                                    : 1 440 pixels
Height                                   : 1 080 pixels
Display aspect ratio                     : 4:3
Original display aspect ratio            : 16:9
Frame rate mode                          : Constant
Frame rate                               : 25.000 fps
Standard                                 : PAL
Color space                              : YUV
Chroma subsampling                       : 4:2:0
Bit depth                                : 8 bits
Scan type                                : Interlaced
Scan order                               : Top Field First
Bits/(Pixel*Frame)                       : 0.088
Stream size                              : 1.15 GiB (97%)
Language                                 : English
Encoded date                             : UTC 2011-08-08 15:13:46
Tagged date                              : UTC 2011-08-08 15:13:46
Color primaries                          : BT.709
Transfer characteristics                 : BT.709
Matrix coefficients                      : BT.709

Audio
ID                                       : 2
Format                                   : AAC
Format/Info                              : Advanced Audio Codec
Format profile                           : LC
Codec ID                                 : 40
Duration                                 : 48mn 4s
Bit rate mode                            : Variable
Bit rate                                 : 93.9 Kbps
Maximum bit rate                         : 152 Kbps
Channel(s)                               : 2 channels
Channel positions                        : Front: L R
Sampling rate                            : 48.0 KHz
Compression mode                         : Lossy
Stream size                              : 32.3 MiB (3%)
Language                                 : English
Encoded date                             : UTC 2011-08-08 15:13:47
Tagged date                              : UTC 2011-08-08 15:13:47



Links:



S01E05

Info:
General
Complete name                            : E:SeriesHombre de tu vida[El hombre de tu vida][S01E05][1440x1080][H264] by Rey_Xeneise-gearl23-DreamTheatre.mp4
Format                                   : MPEG-4
Format profile                           : Base Media / Version 2
Codec ID                                 : mp42
File size                                : 1.22 GiB
Duration                                 : 48mn 22s
Overall bit rate mode                    : Variable
Overall bit rate                         : 3 611 Kbps
Encoded date                             : UTC 2011-08-15 14:26:06
Tagged date                              : UTC 2011-08-15 14:26:06

Video
ID                                       : 1
Format                                   : AVC
Format/Info                              : Advanced Video Codec
Format profile                           : [email protected]
Format settings, CABAC                   : Yes
Format settings, ReFrames                : 3 frames
Codec ID                                 : avc1
Codec ID/Info                            : Advanced Video Coding
Duration                                 : 48mn 22s
Bit rate mode                            : Variable
Bit rate                                 : 3 513 Kbps
Maximum bit rate                         : 5 000 Kbps
Width                                    : 1 440 pixels
Height                                   : 1 080 pixels
Display aspect ratio                     : 4:3
Original display aspect ratio            : 16:9
Frame rate mode                          : Constant
Frame rate                               : 25.000 fps
Standard                                 : PAL
Color space                              : YUV
Chroma subsampling                       : 4:2:0
Bit depth                                : 8 bits
Scan type                                : Interlaced
Scan order                               : Top Field First
Bits/(Pixel*Frame)                       : 0.090
Stream size                              : 1.19 GiB (97%)
Language                                 : English
Encoded date                             : UTC 2011-08-15 14:26:07
Tagged date                              : UTC 2011-08-15 14:26:07
Color primaries                          : BT.709
Transfer characteristics                 : BT.709
Matrix coefficients                      : BT.709

Audio
ID                                       : 2
Format                                   : AAC
Format/Info                              : Advanced Audio Codec
Format profile                           : LC
Codec ID                                 : 40
Duration                                 : 48mn 22s
Bit rate mode                            : Variable
Bit rate                                 : 93.9 Kbps
Maximum bit rate                         : 155 Kbps
Channel(s)                               : 2 channels
Channel positions                        : Front: L R
Sampling rate                            : 48.0 KHz
Compression mode                         : Lossy
Stream size                              : 32.5 MiB (3%)
Language                                 : English
Encoded date                             : UTC 2011-08-15 14:26:08
Tagged date                              : UTC 2011-08-15 14:26:08



Links:



S01E06

Info:
General
Complete name                            : E:SeriesHombre de tu vida[El hombre de tu vida][S01E06][1440x1080][H264] by Rey_Xeneise-gearl23-DreamTheatre.mp4
Format                                   : MPEG-4
Format profile                           : Base Media / Version 2
Codec ID                                 : mp42
File size                                : 1.34 GiB
Duration                                 : 43mn 49s
Overall bit rate mode                    : Variable
Overall bit rate                         : 4 383 Kbps
Encoded date                             : UTC 2011-08-22 13:01:43
Tagged date                              : UTC 2011-08-22 13:01:43

Video
ID                                       : 1
Format                                   : AVC
Format/Info                              : Advanced Video Codec
Format profile                           : [email protected]
Format settings, CABAC                   : Yes
Format settings, ReFrames                : 3 frames
Codec ID                                 : avc1
Codec ID/Info                            : Advanced Video Coding
Duration                                 : 43mn 49s
Bit rate mode                            : Variable
Bit rate                                 : 4 285 Kbps
Maximum bit rate                         : 6 500 Kbps
Width                                    : 1 440 pixels
Height                                   : 1 080 pixels
Display aspect ratio                     : 4:3
Original display aspect ratio            : 16:9
Frame rate mode                          : Constant
Frame rate                               : 25.000 fps
Standard                                 : PAL
Color space                              : YUV
Chroma subsampling                       : 4:2:0
Bit depth                                : 8 bits
Scan type                                : Interlaced
Scan order                               : Top Field First
Bits/(Pixel*Frame)                       : 0.110
Stream size                              : 1.31 GiB (98%)
Language                                 : English
Encoded date                             : UTC 2011-08-22 13:01:44
Tagged date                              : UTC 2011-08-22 13:01:44
Color primaries                          : BT.709
Transfer characteristics                 : BT.709
Matrix coefficients                      : BT.709

Audio
ID                                       : 2
Format                                   : AAC
Format/Info                              : Advanced Audio Codec
Format profile                           : LC
Codec ID                                 : 40
Duration                                 : 43mn 49s
Bit rate mode                            : Variable
Bit rate                                 : 93.9 Kbps
Maximum bit rate                         : 151 Kbps
Channel(s)                               : 2 channels
Channel positions                        : Front: L R
Sampling rate                            : 48.0 KHz
Compression mode                         : Lossy
Stream size                              : 29.4 MiB (2%)
Language                                 : English
Encoded date                             : UTC 2011-08-22 13:01:45
Tagged date                              : UTC 2011-08-22 13:01:45



Links:



S01E07

Info:
General
Unique ID                                : 204078426622029936461799753305056420920 (0x99881345C734D5528EEAD8E09CE92438)
Complete name                            : E:SeriesHombre de tu vida[El hombre de tu vida][S01E07][1440x1080][H264] by Rey_Xeneise-gearl23-DreamTheatre.mkv
Format                                   : Matroska
Format version                           : Version 2
File size                                : 1.35 GiB
Duration                                 : 47mn 18s
Overall bit rate mode                    : Variable
Overall bit rate                         : 4 094 Kbps
Encoded date                             : UTC 2012-05-22 13:44:07
Writing application                      : mkvmerge v5.0.0 ('Die Wahre Liebe') built on Sep 25 2011 20:33:49
Writing library                          : libebml v1.2.2 + libmatroska v1.3.0

Video
ID                                       : 1
Format                                   : AVC
Format/Info                              : Advanced Video Codec
Format profile                           : [email protected]
Format settings, CABAC                   : Yes
Format settings, ReFrames                : 3 frames
Muxing mode                              : Header stripping
Codec ID                                 : V_MPEG4/ISO/AVC
Duration                                 : 47mn 18s
Bit rate mode                            : Variable
Maximum bit rate                         : 6 500 Kbps
Width                                    : 1 440 pixels
Height                                   : 1 080 pixels
Display aspect ratio                     : 16:9
Original display aspect ratio            : 16:9
Frame rate mode                          : Constant
Frame rate                               : 25.000 fps
Standard                                 : PAL
Color space                              : YUV
Chroma subsampling                       : 4:2:0
Bit depth                                : 8 bits
Scan type                                : Interlaced
Scan order                               : Top Field First
Language                                 : English
Default                                  : Yes
Forced                                   : No
Color primaries                          : BT.709
Transfer characteristics                 : BT.709
Matrix coefficients                      : BT.709

Audio
ID                                       : 2
Format                                   : AAC
Format/Info                              : Advanced Audio Codec
Format profile                           : LC
Codec ID                                 : A_AAC
Duration                                 : 47mn 18s
Channel(s)                               : 2 channels
Channel positions                        : Front: L R
Sampling rate                            : 48.0 KHz
Compression mode                         : Lossy
Language                                 : English
Default                                  : Yes
Forced                                   : No



Links:



S01E08

Info:
General
Unique ID                                : 227696687818461471764965184958336168090 (0xAB4CC9744AF27996873DCE593BFD709A)
Complete name                            : E:SeriesHombre de tu vida[El hombre de tu vida][S01E08][1440x1080][H264] by Rey_Xeneise-gearl23-DreamTheatre.mkv
Format                                   : Matroska
Format version                           : Version 2
File size                                : 1.37 GiB
Duration                                 : 45mn 42s
Overall bit rate mode                    : Variable
Overall bit rate                         : 4 292 Kbps
Encoded date                             : UTC 2012-05-24 12:54:47
Writing application                      : mkvmerge v5.0.0 ('Die Wahre Liebe') built on Sep 25 2011 20:33:49
Writing library                          : libebml v1.2.2 + libmatroska v1.3.0

Video
ID                                       : 1
Format                                   : AVC
Format/Info                              : Advanced Video Codec
Format profile                           : [email protected]
Format settings, CABAC                   : Yes
Format settings, ReFrames                : 3 frames
Muxing mode                              : Header stripping
Codec ID                                 : V_MPEG4/ISO/AVC
Duration                                 : 45mn 42s
Bit rate mode                            : Variable
Maximum bit rate                         : 6 500 Kbps
Width                                    : 1 440 pixels
Height                                   : 1 080 pixels
Display aspect ratio                     : 16:9
Original display aspect ratio            : 16:9
Frame rate mode                          : Constant
Frame rate                               : 25.000 fps
Standard                                 : PAL
Color space                              : YUV
Chroma subsampling                       : 4:2:0
Bit depth                                : 8 bits
Scan type                                : Interlaced
Scan order                               : Top Field First
Language                                 : English
Default                                  : Yes
Forced                                   : No
Color primaries                          : BT.709
Transfer characteristics                 : BT.709
Matrix coefficients                      : BT.709

Audio
ID                                       : 2
Format                                   : AAC
Format/Info                              : Advanced Audio Codec
Format profile                           : LC
Codec ID                                 : A_AAC
Duration                                 : 45mn 42s
Channel(s)                               : 2 channels
Channel positions                        : Front: L R
Sampling rate                            : 48.0 KHz
Compression mode                         : Lossy
Delay relative to video                  : 7ms
Language                                 : English
Default                                  : Yes
Forced                                   : No



Links:



S01E09

Info:
General
Unique ID                                : 207463107991827267276220446648249557463 (0x9C13F0F2B9F29C34A2958B7A9C8721D7)
Complete name                            : E:SeriesHombre de tu vida[El hombre de tu vida][S01E09][1440x1080][H264] by Rey_Xeneise-gearl23-DreamTheatre.mkv
Format                                   : Matroska
Format version                           : Version 2
File size                                : 1.42 GiB
Duration                                 : 47mn 33s
Overall bit rate mode                    : Variable
Overall bit rate                         : 4 270 Kbps
Encoded date                             : UTC 2012-05-24 13:06:55
Writing application                      : mkvmerge v5.0.0 ('Die Wahre Liebe') built on Sep 25 2011 20:33:49
Writing library                          : libebml v1.2.2 + libmatroska v1.3.0

Video
ID                                       : 1
Format                                   : AVC
Format/Info                              : Advanced Video Codec
Format profile                           : [email protected]
Format settings, CABAC                   : Yes
Format settings, ReFrames                : 3 frames
Muxing mode                              : Header stripping
Codec ID                                 : V_MPEG4/ISO/AVC
Duration                                 : 47mn 33s
Bit rate mode                            : Variable
Maximum bit rate                         : 6 500 Kbps
Width                                    : 1 440 pixels
Height                                   : 1 080 pixels
Display aspect ratio                     : 16:9
Original display aspect ratio            : 16:9
Frame rate mode                          : Constant
Frame rate                               : 25.000 fps
Standard                                 : PAL
Color space                              : YUV
Chroma subsampling                       : 4:2:0
Bit depth                                : 8 bits
Scan type                                : Interlaced
Scan order                               : Top Field First
Language                                 : English
Default                                  : Yes
Forced                                   : No
Color primaries                          : BT.709
Transfer characteristics                 : BT.709
Matrix coefficients                      : BT.709

Audio
ID                                       : 2
Format                                   : AAC
Format/Info                              : Advanced Audio Codec
Format profile                           : LC
Codec ID                                 : A_AAC
Duration                                 : 47mn 33s
Channel(s)                               : 2 channels
Channel positions                        : Front: L R
Sampling rate                            : 48.0 KHz
Compression mode                         : Lossy
Language                                 : English
Default                                  : Yes
Forced                                   : No



Links:



S01E10

Info:
General
Unique ID                                : 177132253642719929161128883510783077392 (0x85426E5F3D2B56B6AC3A98C62D256C10)
Complete name                            : E:SeriesHombre de tu vida[El hombre de tu vida][S01E10][1440x1080][H264] by Rey_Xeneise-gearl23-DreamTheatre.mkv
Format                                   : Matroska
Format version                           : Version 2
File size                                : 1.57 GiB
Duration                                 : 52mn 15s
Overall bit rate mode                    : Variable
Overall bit rate                         : 4 293 Kbps
Encoded date                             : UTC 2012-05-29 16:41:12
Writing application                      : mkvmerge v5.0.0 ('Die Wahre Liebe') built on Sep 25 2011 20:33:49
Writing library                          : libebml v1.2.2 + libmatroska v1.3.0

Video
ID                                       : 1
Format                                   : AVC
Format/Info                              : Advanced Video Codec
Format profile                           : [email protected]
Format settings, CABAC                   : Yes
Format settings, ReFrames                : 3 frames
Muxing mode                              : Header stripping
Codec ID                                 : V_MPEG4/ISO/AVC
Duration                                 : 52mn 15s
Bit rate mode                            : Variable
Maximum bit rate                         : 6 500 Kbps
Width                                    : 1 440 pixels
Height                                   : 1 080 pixels
Display aspect ratio                     : 16:9
Original display aspect ratio            : 16:9
Frame rate mode                          : Constant
Frame rate                               : 25.000 fps
Standard                                 : PAL
Color space                              : YUV
Chroma subsampling                       : 4:2:0
Bit depth                                : 8 bits
Scan type                                : Progressive
Language                                 : English
Default                                  : Yes
Forced                                   : No
Color primaries                          : BT.709
Transfer characteristics                 : BT.709
Matrix coefficients                      : BT.709

Audio
ID                                       : 2
Format                                   : AAC
Format/Info                              : Advanced Audio Codec
Format profile                           : LC
Codec ID                                 : A_AAC
Duration                                 : 52mn 15s
Channel(s)                               : 2 channels
Channel positions                        : Front: L R
Sampling rate                            : 48.0 KHz
Compression mode                         : Lossy
Language                                 : English
Default                                  : Yes
Forced                                   : No



Links:



S01E11

Info:
General
Complete name                            : E:SeriesHombre de tu vida[El hombre de tu vida][S01E11][1440x1080][H264] by Rey_Xeneise-gearl23-DreamTheatre.mp4
Format                                   : MPEG-4
Format profile                           : Base Media / Version 2
Codec ID                                 : mp42
File size                                : 1.46 GiB
Duration                                 : 48mn 42s
Overall bit rate mode                    : Variable
Overall bit rate                         : 4 289 Kbps
Encoded date                             : UTC 2011-09-26 13:32:35
Tagged date                              : UTC 2011-09-26 13:32:35

Video
ID                                       : 1
Format                                   : AVC
Format/Info                              : Advanced Video Codec
Format profile                           : [email protected]
Format settings, CABAC                   : Yes
Format settings, ReFrames                : 3 frames
Codec ID                                 : avc1
Codec ID/Info                            : Advanced Video Coding
Duration                                 : 48mn 42s
Bit rate mode                            : Variable
Bit rate                                 : 4 191 Kbps
Maximum bit rate                         : 6 500 Kbps
Width                                    : 1 440 pixels
Height                                   : 1 080 pixels
Display aspect ratio                     : 4:3
Original display aspect ratio            : 16:9
Frame rate mode                          : Constant
Frame rate                               : 25.000 fps
Standard                                 : PAL
Color space                              : YUV
Chroma subsampling                       : 4:2:0
Bit depth                                : 8 bits
Scan type                                : Progressive
Bits/(Pixel*Frame)                       : 0.108
Stream size                              : 1.43 GiB (98%)
Language                                 : English
Encoded date                             : UTC 2011-09-26 13:32:36
Tagged date                              : UTC 2011-09-26 13:32:36
Color primaries                          : BT.709
Transfer characteristics                 : BT.709
Matrix coefficients                      : BT.709

Audio
ID                                       : 2
Format                                   : AAC
Format/Info                              : Advanced Audio Codec
Format profile                           : LC
Codec ID                                 : 40
Duration                                 : 48mn 42s
Bit rate mode                            : Variable
Bit rate                                 : 93.9 Kbps
Maximum bit rate                         : 148 Kbps
Channel(s)                               : 2 channels
Channel positions                        : Front: L R
Sampling rate                            : 48.0 KHz
Compression mode                         : Lossy
Stream size                              : 32.7 MiB (2%)
Language                                 : English
Encoded date                             : UTC 2011-09-26 13:32:37
Tagged date                              : UTC 2011-09-26 13:32:37



Links:



S01E12

Info:
General
Unique ID                                : 180151427532859106901963332429741533679 (0x8787E72334F4C570A738EBC4178FA9EF)
Complete name                            : E:SeriesHombre de tu vida[El hombre de tu vida][S01E12][1440x1080][H264] by Rey_Xeneise-gearl23-DreamTheatre.mkv
Format                                   : Matroska
Format version                           : Version 2
File size                                : 1.51 GiB
Duration                                 : 50mn 30s
Overall bit rate mode                    : Variable
Overall bit rate                         : 4 293 Kbps
Encoded date                             : UTC 2011-10-03 16:02:25
Writing application                      : mkvmerge v4.0.0 ('The Stars were mine') built on Jun  6 2010 16:18:42
Writing library                          : libebml v1.0.0 + libmatroska v1.0.0

Video
ID                                       : 1
Format                                   : AVC
Format/Info                              : Advanced Video Codec
Format profile                           : [email protected]
Format settings, CABAC                   : Yes
Format settings, ReFrames                : 3 frames
Codec ID                                 : V_MPEG4/ISO/AVC
Duration                                 : 50mn 30s
Bit rate mode                            : Variable
Maximum bit rate                         : 6 500 Kbps
Width                                    : 1 440 pixels
Height                                   : 1 080 pixels
Display aspect ratio                     : 16:9
Frame rate mode                          : Constant
Frame rate                               : 25.000 fps
Standard                                 : PAL
Color space                              : YUV
Chroma subsampling                       : 4:2:0
Bit depth                                : 8 bits
Scan type                                : Progressive
Language                                 : English
Default                                  : Yes
Forced                                   : No
Color primaries                          : BT.709
Transfer characteristics                 : BT.709
Matrix coefficients                      : BT.709

Audio
ID                                       : 2
Format                                   : AAC
Format/Info                              : Advanced Audio Codec
Format profile                           : LC
Codec ID                                 : A_AAC
Duration                                 : 50mn 30s
Channel(s)                               : 2 channels
Channel positions                        : Front: L R
Sampling rate                            : 48.0 KHz
Compression mode                         : Lossy
Language                                 : English
Default                                  : Yes
Forced                                   : No



Links:




S01E13

Info:
General
Unique ID                                : 180151427532859106901963332429741533679 (0x8787E72334F4C570A738EBC4178FA9EF)
Complete
 name                            : E:SeriesHombre de tu vida[El hombre
de tu vida][S01E12][1440x1080][H264] by
Rey_Xeneise-gearl23-DreamTheatre.mkv
Format                                   : Matroska
Format version                           : Version 2
File size                                : 1.51 GiB
Duration                                 : 50mn 30s
Overall bit rate mode                    : Variable
Overall bit rate                         : 4 293 Kbps
Encoded date                             : UTC 2011-10-03 16:02:25
Writing application                      : mkvmerge v4.0.0 ('The Stars were mine') built on Jun  6 2010 16:18:42
Writing library                          : libebml v1.0.0 + libmatroska v1.0.0

Video
ID                                       : 1
Format                                   : AVC
Format/Info                              : Advanced Video Codec
Format profile                           : [email protected]
Format settings, CABAC                   : Yes
Format settings, ReFrames                : 3 frames
Codec ID                                 : V_MPEG4/ISO/AVC
Duration                                 : 50mn 30s
Bit rate mode                            : Variable
Maximum bit rate                         : 6 500 Kbps
Width                                    : 1 440 pixels
Height                                   : 1 080 pixels
Display aspect ratio                     : 16:9
Frame rate mode                          : Constant
Frame rate                               : 25.000 fps
Standard                                 : PAL
Color space                              : YUV
Chroma subsampling                       : 4:2:0
Bit depth                                : 8 bits
Scan type                                : Progressive
Language                                 : English
Default                                  : Yes
Forced                                   : No
Color primaries                          : BT.709
Transfer characteristics                 : BT.709
Matrix coefficients                      : BT.709

Audio
ID                                       : 2
Format                                   : AAC
Format/Info                              : Advanced Audio Codec
Format profile                           : LC
Codec ID                                 : A_AAC
Duration                                 : 50mn 30s
Channel(s)                               : 2 channels
Channel positions                        : Front: L R
Sampling rate                            : 48.0 KHz
Compression mode                         : Lossy
Language                                 : English
Default                                  : Yes
Forced                                   : No



Links:




porreyxeneise



Proximamente temporada 2...... siganme!.....
El hombre de tu vida.Temporada 1.En HD.(Mega)
35 Puntos Score: 8.8/10
Visitas: 4440 Favoritos: 13
Ver los usuarios que votaron...
37 Comentarios El hombre de tu vida.Temporada 1.En HD.(Mega)
Estupendo aporte colega, gracias por compartirlo  
Yo no la vi bien la serie asi que me viene de maravilla
Por otro lado, no se si soy yo pero no me agrega los enlaces de Mega al Mipony   Dejaste los links con el candado o sera por error mio o del sistema ? Luego pruebo de nuevo sino ahi que avisar al administrador.

Saludos
es que puse los links para que solmanete se descarguen con jd, con clic n' load. Es por seguridad, para que sea mas dificil que borren los links
@reyxeneise Ya lo se y de hecho tambien lo apoyo pero me referia que tuve problemas para verificar que lo cargue bien . Luego pruebo bien y te digo si ahi algun problema. Dale para adelante con la otra temporada que es una serie recomendable de la tv argentina y en estupenda calidad  
Saludos
@reyxeneise No anda bien, los links creo que deben tener el candado para compartirlos. Fijate si te carga a vos los links si te los carga bien es porque yo no puedo (aunque tengo una version actualizada del programa)
Saludos
q tal excelente post mmm toy descargando pero l capi 2 falta la parte 9 del capi 3 falta la parte 12 y 15 t agradeceria si subieras plis
Post editado a ver si ahora los agrega al JD @sdcaza_B_  
Aun , no me sale nada , debe haber alguna letrita que le falta al link    

Gracias  @sawadypap


a esperar al user  @sdcaza_B_    
@hugoneitor entonces no sep!!!! le agregu?
@sawadypap  Gracias sawa    , alli el joven nos ayudara al rato , a esperar  
A ver banquen que los chequeo...
Mmm @danielex funcionan todos, recien lo comprobe, estan todas las partes. NO te habra aparecido que temporalmente estaban inconprobables? @sdcaza_B_ es raro, porque al jd me los agrega todos los enlaces, y los puedo descargar sin dramas
@reyxeneise @hugoneitor @sawadypap Gracias por su ayuda, ya se pueden agregar los links  
Saludos
@sawadypap Pero con el otro nivel de proteccion no hace falta poner los links y con este si ?  
*poner comas quise decir
@sawadypap Ahhhh para..... se me ocurre que quiza cuando los copie directamente de mega no ahabia un espacio entre link y link... capaz que por eso jodia
Hola podrian hacer algo para que los pueda agregar en mipony porq no uso el JD. Gracias!!!
@donbrizu y mira lo siento.... cuesta mucho subir los capitulos..... uso el metodo de encriptacion mas seguro para que duren mas..... si no funciona eso con mypony lo siento de verdad....
Ok, muchas gracias pero lamentablemente no voy a poder ver los links asi ya que JD es muy inestable y pesado.
fijate si hay algun tipo de plugin que permita usar click n' load en mypony
buenisimo loco mil gracias
muy bueno el aporte...  
soy nuevo en esto, descargue los links pero me piden contrase?
esta en el post: porreyxeneise
Loco muy buen post... Pero cuando quiero extraer el archivo del capitulo 13 de la 1era temporada, me dice que falta la parte 16 del rar.. Por favor subila!
Muchas Gracias!  
No funciona el link de la parte 5, del capitulo 7, gracias, muy buen post.
No funciona el link capitulo 7 parte 5, gracias.
Muchas gracias.
podras poner los link directos lo quiero bajar pero no me los descarga por el mipony   si ponnes los link directos puedo copiar ii lo toma de toq te agraceceria  
No, sino los links duran dos dias
muchas gracias xeneise!!! debes ser el unico en toda la web que ofreces esta serie para descargar y en HD!! SALUDOS
Amigo te agradecer?
Tenes que hacer clic en el boton mientras tenes el jdownloader abierto, ahi si vas a poder agregar los links
Que grande! Muy buena la calidad,muchas gracias!
Lo reproduzco y se me ve la mitad de la imagen, la mitad de abajo se ve completamente verde. ?
genioooooo!!!!! muchas gracias por compartir excelente calidad!!!
Para dejar un comentario Registrate! o.. eres ya usuario? Accede!