Oops.. Este post tiene los enlaces eliminados!

Identi revisa las denuncias de los usuarios en busca de enlaces eliminados que no dejan descargar los archivos, este mensaje te informa que este post que estas viendo tiene los enlaces eliminados.

Usa el Buscador

Por favor, te recomendamos que uses el buscador para encontrar más alternativas.

Bandidos 1991 Dvd Rip

  • Categoría: Reciclaje
  • Publicado hace más de 3 años





TÍTULO ORIGINAL   Bandidos
AÑO    1991
DURACIÓN   Sugerir trailer/vídeo 95 min.
PAÍS   
DIRECTOR   Luis Estrada
GUIÓN   Luis Estrada, Jaime Sampietro
MÚSICA   Santiago Ojeda
FOTOGRAFÍA   Emmanuel Lubezki
REPARTO   Eduardo Toussaint, Jorge Poza, Alan Gutiérrez, Sebastián Hiriart, Pedro Armendáriz Jr., Daniel Giménez Cacho, Damián Alcázar, Pedro Altamirano, Jorge Russek, Ernesto Yáñez, Bruno Rey, Gabriela Roel, Jorge Zepeda, Julian Bucio
PRODUCTORA   Coproducción México-España; Bandidos Films / IMCINE / CCC / Churubusco Azteca / Televisión Española
GÉNERO   Acción. Aventuras. Bélico | Revolución Mexicana
SINOPSIS   1913, en plena revolución. Luis se escapa del colegio en el que está internado para visitar una caverna en la que se esconde una banda de forajidos. Los bandidos persiguen al niño sin poder atraparlo. Al regresar a su colegio, Luis descubre que ha sido destruido por los bandidos y que él es el único sobreviviente. Decidido a todo, Luis termina uniéndose a una pandilla de niños ladrones, quienes lo ayudarán a vengar la muerte de sus compañeros. 





General

Format                           : AVI
Format/Info                      : Audio Video Interleave
File size                        : 702 MiB
Duration                         : 1h 36mn
Overall bit rate                 : 1 019 Kbps
Writing application              : VirtualDubMod 1.5.10.2 (build 2540/release)
Writing library                  : VirtualDubMod build 2540/release

Video
ID                               : 0
Format                           : MPEG-4 Visual
Format profile                   : Advanced [email protected]
Format settings, BVOP            : 1
Format settings, QPel            : No
Format settings, GMC             : No warppoints
Format settings, Matrix          : Default (H.263)
Muxing mode                      : Packed bitstream
Codec ID                         : XVID
Codec ID/Hint                    : XviD
Duration                         : 1h 36mn
Bit rate                         : 879 Kbps
Width                            : 608 pixels
Height                           : 448 pixels
Display aspect ratio             : 4:3
Frame rate                       : 29.970 fps
Color space                      : YUV
Chroma subsampling               : 4:2:0
Bit depth                        : 8 bits
Scan type                        : Progressive
Compression mode                 : Lossy
Bits/(Pixel*Frame)               : 0.108
Stream size                      : 606 MiB (86%)
Writing library                  : XviD 1.2.1 (UTC 2008-12-04)

Audio
ID                               : 1
Format                           : MPEG Audio
Format version                   : Version 1
Format profile                   : Layer 3
Mode                             : Joint stereo
Mode extension                   : MS Stereo
Codec ID                         : 55
Codec ID/Hint                    : MP3
Duration                         : 1h 36mn
Bit rate mode                    : Constant
Bit rate                         : 128 Kbps
Channel(s)                       : 2 channels
Sampling rate                    : 44.1 KHz
Compression mode                 : Lossy
Stream size                      : 88.1 MiB (13%)
Alignment                        : Split accross interleaves
Interleave, duration             : 32 ms (0.95 video frame)
Interleave, preload duration     : 500 ms






Bandidos 1991 Dvd Rip
10 Puntos Score: 10/10
Visitas: 2147 Favoritos: 0
Ver los usuarios que votaron...
Más del Autor...
No se encontraron más posts
5 Comentarios Bandidos 1991 Dvd Rip
se ve interesante, gracias  
Pelicula mexicana altamente recomendable, te dejo tus primeros 10 puntos, un saludo desde Toluca.
Gracias!! esta muy buena esta peli
@chachoacc @cherokee @Onlywell gracias recomienden mi post gracias
Gracias por el aporte
Para dejar un comentario Registrate! o.. eres ya usuario? Accede!