The Baytown Outlaws 2013[BDRip1080p][Audio Latino]



The Baytown Outlaws 2013
BDRip 1080p | Audio Latino AC3 5.1 | 1.47 GB


La historia gira en torno a una mujer (Longoria) que contrata los servicios de tres hermanos un poco tontainas para que rescaten a su hijo de a quien ellla considera un mal padre: su ex marido (Thornton).

Nota: No la vi completa todavia pero por lo que vi esta muy buena



Datos de la Pelicula
Título original: The Baytown Outlaws
País: USA
Estreno en USA: 11/01/2013
Estreno en España:
Productora: LLeju Productions, State Street Pictures
Director: Barry Battles
Guión: Griffin Hood, Barry Battles
Reparto: Billy Bob Thornton, Eva Longoria, Thomas Brodie-Sangster, Clayne Crawford, Paul Wesley, Andre Braugher

Info Codificacion
General

Complete name : The.Baytown.Outlaws.2012.1080p.BDRip.Latino.by.al macervecera.mkv
Format : Matroska
Format version : Version 2
File size : 1.47 GiB
Duration : 1h 38mn
Overall bit rate : 2 144 Kbps
Movie name : The.Baytown.Outlaws.2012.1080p.BDRip.Latino.by.al macervecera
Encoded date : UTC 2013-03-07 19:34:15
Writing application : mkvmerge v3.4.0 (?Rapunzel?) built on May 15 2010 09:38:20
Writing library : libebml v0.8.0 + libmatroska v0.9.0

Video
ID : 1
Format : AVC
Format/Info : Advanced Video Codec
Format profile : [email protected]
Format settings, CABAC : Yes
Format settings, ReFrames : 6 frames
Codec ID : V_MPEG4/ISO/AVC
Duration : 1h 38mn
Bit rate : 1 782 Kbps
Width : 1 920 pixels
Height : 800 pixels
Display aspect ratio : 2.40:1
Frame rate mode : Constant
Frame rate : 23.976 fps
Color space : YUV
Chroma subsampling : 4:2:0
Bit depth : 8 bits
Scan type : Progressive
Bits/(Pixel*Frame) : 0.048
Stream size : 1.23 GiB (83%)
Title : by almacervecera
Language : Spanish
Default : Yes
Forced : No
Color primaries : BT.709
Transfer characteristics : BT.709
Matrix coefficients : BT.709

Audio
ID : 2
Format : AC-3
Format/Info : Audio Coding 3
Mode extension : CM (complete main)
Format settings, Endianness : Big
Codec ID : A_AC3
Duration : 1h 38mn
Bit rate mode : Constant
Bit rate : 320 Kbps
Channel(s) : 6 channels
Channel positions : Front: L C R, Side: L R, LFE
Sampling rate : 48.0 KHz
Bit depth : 16 bits
Compression mode : Lossy
Stream size : 225 MiB (15%)
Title : by almacervecera
Language : Spanish
Default : Yes
Forced : No

Menu
00:00:00.000 : en:Chapter 1
00:05:16.482 : en:Chapter 2
00:10:29.128 : en:Chapter 3
00:17:25.252 : en:Chapter 4
00:23:29.616 : en:Chapter 5
00:29:10.290 : en:Chapter 6
00:36:36.527 : en:Chapter 7
00:41:09.967 : en:Chapter 8
00:47:49.074 : en:Chapter 9
00:53:04.681 : en:Chapter 10
00:59:50.795 : en:Chapter 11
01:06:10.299 : en:Chapter 12
01:12:33.098 : en:Chapter 13
01:17:53.835 : en:Chapter 14
01:25:45.098 : en:Chapter 15
01:34:27.203 : en:Chapter 16
01:38:27.443 : en:Chapter 17

Capturas















Sin contraseña | Facil Extraction | Links Intercambiables




The Baytown Outlaws 2013[BDRip1080p][Audio Latino]
0 Puntos Score: 0/10
Visitas: 1686 Favoritos: 2
5 Comentarios The Baytown Outlaws 2013[BDRip1080p][Audio Latino]
amigo algo pasa no se ven los links gracias
bueno haber que tal saludos
ESTA GENIALLL LA PELII UN POCO SANGRIENTA PERO BUENNAAA SE REIRAN BASTANTE
GRACIASSS
Para dejar un comentario Registrate! o.. eres ya usuario? Accede!