Robot and Frank 2012 [BDRip 1080p][Audio Latino]



Robot and Frank 2012
BDRip 1080p | Audio  Latino AC3 5.1  |  942 MB


La película se presentó en el Festival de Sundance donde consiguió el premio Alfred P Sloan. Poco después, en la pasada edición del Festival de Sitges, se llevó el Gran Premio del Público.
Frank es un viejo y solitario cascarrabias que tiene una gran pasión por los libros. De hecho, su única amistad es la que mantiene con una bibliotecaria. Su vida es muy tranquila y rutinaria, pero todo cambia cuando su hijo decide regalarle un robot que se encargará de cuidarle. Por increíble que parezca, el anciano comenzará a hacerse amigo de la máquina y a enseñarle algunas de sus secretas habilidades.o de la máquina.

Datos de la Pelicula
Título: Un amigo para Frank
Título original: Robot and Frank
País: USA
Estreno en USA: 17/08/2012
Estreno en España: 12/07/2013
Productora: Park Pictures Features, Park Pictures, TBB
Director: Jake Schreier
Guión: Christopher D. Ford
Reparto: Frank Langella, James Marsden, Liv Tyler, Susan Sarandon, Peter Sarsgaard, Jeremy Strong

Info Codificacion
General

Complete name : Robot.And.Frank.2012.1080p.BDRip.Latino.by.almace rvecera.mkv
Format : Matroska
Format version : Version 2
File size : 942 MiB
Duration : 1h 29mn
Overall bit rate : 1 480 Kbps
Movie name : Robot.And.Frank.2012.1080p.BDRip.Latino.by.almace rvecera
Encoded date : UTC 2013-03-07 16:59:00
Writing application : mkvmerge v3.4.0 (?Rapunzel?) built on May 15 2010 09:38:20
Writing library : libebml v0.8.0 + libmatroska v0.9.0

Video
ID : 1
Format : AVC
Format/Info : Advanced Video Codec
Format profile : [email protected]
Format settings, CABAC : Yes
Format settings, ReFrames : 6 frames
Codec ID : V_MPEG4/ISO/AVC
Duration : 1h 29mn
Bit rate : 811 Kbps
Width : 1 920 pixels
Height : 800 pixels
Display aspect ratio : 2.40:1
Frame rate mode : Constant
Frame rate : 23.976 fps
Color space : YUV
Chroma subsampling : 4:2:0
Bit depth : 8 bits
Scan type : Progressive
Bits/(Pixel*Frame) : 0.022
Stream size : 516 MiB (55%)
Title : by almacervecera
Writing library : x264 core 120
Language : Spanish
Default : Yes
Forced : No
Color primaries : BT.709
Transfer characteristics : BT.709
Matrix coefficients : BT.709

Audio
ID : 2
Format : AC-3
Format/Info : Audio Coding 3
Mode extension : CM (complete main)
Format settings, Endianness : Big
Codec ID : A_AC3
Duration : 1h 29mn
Bit rate mode : Constant
Bit rate : 640 Kbps
Channel(s) : 6 channels
Channel positions : Front: L C R, Side: L R, LFE
Sampling rate : 48.0 KHz
Bit depth : 16 bits
Compression mode : Lossy
Stream size : 407 MiB (43%)
Title : by almacervecera
Language : Spanish
Default : Yes
Forced : No

Menu
00:00:00.000 : en:Chapter 1
00:04:21.302 : en:Chapter 2
00:08:40.895 : en:Chapter 3
00:13:52.832 : en:Chapter 4
00:17:57.242 : en:Chapter 5
00:23:37.707 : en:Chapter 6
00:29:36.775 : en:Chapter 7
00:34:08.629 : en:Chapter 8
00:39:36.749 : en:Chapter 9
00:44:04.892 : en:Chapter 10
00:50:52.841 : en:Chapter 11
00:57:55.472 : en:Chapter 12
01:01:44.117 : en:Chapter 13
01:07:34.925 : en:Chapter 14
01:13:00.084 : en:Chapter 15
01:19:23.341 : en:Chapter 16

Capturas















Sin contraseña | Facil Extraction | 1 Links




Robot and Frank 2012 [BDRip 1080p][Audio Latino]
0 Puntos Score: 0/10
Visitas: 2024 Favoritos: 1
6 Comentarios Robot and Frank 2012 [BDRip 1080p][Audio Latino]
buen aporte amigo
SACRIFICAN MUCHO LA CALIDAD POR EL PESO DEL ARCHIVO   luego y luego se empieza a ver pixelada, se empieza hacer barridos, pero de todos modos se agradece el esfuerzo
942 mb y es de 1080, huuuuuuuuu, como han cambiado los tiempos, hace poco una de 720 no bajaba de las 2 gb y ahora, que malo para la calidad, que le vamos hacer..........se agradece el esfuerzo, pero paso, esperare algo mas de peso.-
Cita trukof: Mostrar

Cita arkiman: Mostrar
miren, les comento tengo un samsumg smart tv de 40 pulgadas y tengo medido la calidad, les aseguro que no la ven pixelada para nada, los invito a bajarla y que comprueben ustedes mismos lo que les digo, antes de criticar un trabajo lo menos que pueden hacer es bajar dicho aporte y mostrar capturas con dichas pixelisaciones que ustedes dicen, criticar sin comprobar la calidad , es muy facil, asi que los invito a que lo bajen y comprueben. y despues realmente discutimos, por mi si quieren esperar , bajar con mas peso bajense el BD que tengo posteado en mi pagina, que es de 25 GB, ahora si te parece demasiado peso, bajate este aporte y comproba, saludos y comenten el que la haya bajado y mirado en un led si se ve pixelada o tiene una calidad mas que aceptable y un sonido de los mejores,espero que comenten
lamentablemente te tengo que decir que efectivamente la baje y la vi, por eso la critica tengo un Samsung LED Smart TV 60?
Para dejar un comentario Registrate! o.. eres ya usuario? Accede!