Oops.. Este post tiene los enlaces eliminados!

Identi revisa las denuncias de los usuarios en busca de enlaces eliminados que no dejan descargar los archivos, este mensaje te informa que este post que estas viendo tiene los enlaces eliminados.

Usa el Buscador

Por favor, te recomendamos que uses el buscador para encontrar más alternativas.

The Hobbit An Unexpected Journey 2012 DVDRip

  • Categoría: Reciclaje
  • Publicado hace más de 3 años
The Hobbit An Unexpected Journey 2012 DVDRip

Antes que nada, dejo una muestra de video para que puedan observar la calidad de la peli antes de descargarla!

¬°Descargar la muestra aqui!
















General

Format                         : AVI
Format/Info                    : Audio Video Interleave
File size                      : 710 MiB
Duration                       : 2h 49mn
Overall bit rate               : 585 Kbps
Writing library                : VirtualDub build 32842/release

Video
ID                             : 0
Format                         : MPEG-4 Visual
Format profile                 : Advanced [email protected]
Format settings, BVOP          : 2
Format settings, QPel          : Yes
Format settings, GMC           : No warppoints
Format settings, Matrix        : Default (H.263)
Codec ID                       : XVID
Codec ID/Hint                  : XviD
Duration                       : 2h 49mn
Bit rate                       : 496 Kbps
Width                          : 608 pixels
Height                         : 256 pixels
Display aspect ratio           : 2.40:1
Frame rate                     : 23.976 fps
Color space                    : YUV
Chroma subsampling             : 4:2:0
Bit depth                      : 8 bits
Scan type                      : Progressive
Compression mode               : Lossy
Bits/(Pixel*Frame)             : 0.133
Stream size                    : 601 MiB (85%)
Writing library                : XviD 1.2.1 (UTC 2008-12-04)

Audio
ID                             : 1
Format                         : MPEG Audio
Format version                 : Version 1
Format profile                 : Layer 3
Mode                           : Joint stereo
Mode extension                 : MS Stereo
Codec ID                       : 55
Codec ID/Hint                  : MP3
Duration                       : 2h 49mn
Bit rate mode                  : Constant
Bit rate                       : 80.0 Kbps
Channel(s)                     : 2 channels
Sampling rate                  : 32.0 KHz
Compression mode               : Lossy
Stream size                    : 97.1 MiB (14%)
Alignment                      : Split accross interleaves
Interleave, duration           : 42 ms (1.00 video frame)
Interleave, preload duration   : 500 ms
Writing library                : LAME3.99r
Encoding settings              : -m j -V 4 -q 2 -lowpass 13.5 -b 80









Enlaces De Descarga


Subtitulos

http://www.subdivx.com/X6XMzIxNDI2X-the-hobbit-an-unexpected-journey-2012.html


The Hobbit An Unexpected Journey 2012 DVDRip
15 Puntos Score: 7.5/10
Visitas: 1796 Favoritos: 5
Ver los usuarios que votaron...
15 Comentarios The Hobbit An Unexpected Journey 2012 DVDRip
buenisima calidad gracias
esta en Avi? o mkv?
@agamboat gracias. excelente aporte  
hola capo mira le doy click al enlace y cuando termina el conteo m sale ya puede descargar pero no me salen los link, no se q problema sera, uso el firefox
@fenix1308 es tu navegador usa chrome u reinstala firefox a mi me pasaba lo mismo con mozilla
te doy mis 10 maestro pero no me la llevo porque quiero esperar a que salga en latino excelente tu aporte!!
Excelente aporte mil gracias ... van +5  
ok gracia viejo ahora m fijo
Muchas Gracias amigo, muy buena calidad y lo mejor por Zippyshare  
Para dejar un comentario Registrate! o.. eres ya usuario? Accede!