Oops.. Este post tiene los enlaces eliminados!

Identi revisa las denuncias de los usuarios en busca de enlaces eliminados que no dejan descargar los archivos, este mensaje te informa que este post que estas viendo tiene los enlaces eliminados.

Usa el Buscador

Por favor, te recomendamos que uses el buscador para encontrar más alternativas.

Brigada A 2010 Espa?ol Latino Mediafire

  • Categoría: Reciclaje
  • Publicado hace más de 6 años


FICHA TECNICA

Titulo: The A-Team (El Equipo A)
Año: 2010
Genero: Acción, Aventura, Thriller
Director: Joe Carnahan
País: Estados Unidos
Actores: Liam Neeson, Bradley Cooper, Quinton 'Rampage' Jackson, Sharlto Copley, Jessica Biel

SINOPSIS

Adaptación de la popular serie de TV. Esta versión actual de la historia se centrará en las aventuras de un grupo de veteranos de la Guerra del Golfo (no del Vietnam) que son acusados de un crimen que no han cometido. Tras huir de la ley, sobreviven como mercenarios siendo contratados por personas que están metidas en problemas y que precisan de su ayuda. Jessica Biel será una General del ejército que persigue sin descanso al Equipo A, y que para colmo fue en el pasado el amor de Lt. Templeton. Patrick Wilson también participa en el proyecto como un agente de la CIA.


INFO

Ripper ...........: IMAGiNE   
Weight...............1.47Gb                  
Video Codec.......: XVID
Display aspect ratio     : 2.35
Frame rate        : 25.000 fps
Resolution        640x272         
Audio codec.......:MP3   
Audio Bitrate.....:128   
Audio Latino.......mp3
Audio Bitrate .......128             
Audio: Español Latino

         
Video

Format          : MPEG-4 Visual
Format profile      : Streaming [email protected]
Format settings, BVOP    : Yes
Format settings, QPel    : No
Format settings, GMC     : No warppoints
Format settings, Matrix   : Default
Codec ID         : XVID
Codec ID/Hint      : XviD
Duration         : 1h 47mn
Bit rate         : 1 687 Kbps
Width          : 704 pixels
Height          : 304 pixels
Display aspect ratio     : 2.35
Frame rate        : 25.000 fps
Resolution        : 24 bits
Colorimetry       : 4:2:0
Scan type        : Progressive
Bits/(Pixel*Frame)      : 0.315
Stream size       : 1.27 GiB (92%)
Writing library       : XviD 50

Audio

Format          : MPEG Audio
Format version      : Version 1
Format profile      : Layer 3
Codec ID         : 55
Codec ID/Hint      : MP3
Duration         : 1h 47mn
Bit rate mode      : Constant
Bit rate         : 128 Kbps
Minimum bit rate       : 128 Kbps
Channel(s)        : 2 channels
Sampling rate      : 44.1 KHz
Resolution        : 16 bits
Stream size       : 98.5 MiB (7%)
Alignment        : Split accross interleaves
Interleave, duration     : 40 ms (1.00 video frame)
Interleave, preload duration   : 500 ms
Audio: Español Latino

CAPTURAS





Brigada A 2010 Espa?ol Latino Mediafire
0 Puntos Score: 0/10
Visitas: 4294 Favoritos: 0
0 Comentarios Brigada A 2010 Espa?ol Latino Mediafire
Este post no tiene comentarios. Sea el primero!
Para dejar un comentario Registrate! o.. eres ya usuario? Accede!