Ralph El Demoledor 720p Dual Ing-Lat

Ralph El Demoledor 720p Dual Ing-Lat







Wreck-It Ralph (conocido como ¡Rompe Ralph! en España y Ralph, El Demoledor en Latinoamérica) es una película animada en 3D de 2012 producida por Walt Disney Animation Studios y dirigida por Rich Moore, colaborador de The Simpsons y Futurama.3 Es el largometraje animado número 52 de Walt Disney Animation. La película contiene las voces de John C. Reilly, Jack McBrayer, Jane Lynch y Sarah Silverman. La película cuenta la historia de Wreck-It Ralph (Reilly), un villano de un juego de arcade, que ya no desea ser siempre el malo, demostrándolo tratando de conseguir una medalla; como lo hacen los buenos de los videojuegos.
http://es.wikipedia.org/wiki/Wreck-It_Ralph

Datos Técnicos:



Nombre: Wreck-It Ralph
Año: 2012
Duración: 1 hora, 41 minutos, 13 segundos
Formato: mkv
Calidad: HD 720
Tamaño: 4,45 GB
N° de Links: 1
Audio: Ingles, Español Latino
Subtitulos: Español
Servidor: MEGA




Personaje                               Actor original             Doblaje Latino
Wreck-It Ralph                     John C. Reilly                  Mario Filio
Vanellope von Schweetz       Sarah Silverman      María Antonieta de las Nieves «La Chilindrina»
Fix-It Felix, Jr.                      Jack McBrayer            Moisés Iván Mora
Sargento Calhoun                   Jane Lynch                  Rebeca Patiño
King Candy                               Alan Tudyk             Roberto Carrillo
Taffyta Muttonfudge                Mindy Kaling                Erika Ugalde






Format                                   : Matroska
Format version                           : Version 4 / Version 2
File size                                : 4.46 GiB
Duration                                 : 1h 41mn
Overall bit rate                         : 6 303 Kbps
Encoded date                             : UTC 2013-02-18 03:31:56
Writing application                      : mkvmerge v6.0.0 ('Coming Up For Air') built on Jan 20 2013 09:52:00
Writing library                          : libebml v1.3.0 + libmatroska v1.4.0

Video
ID                                       : 1
Format                                   : AVC
Format/Info                              : Advanced Video Codec
Format profile                           : [email protected]
Format settings, CABAC                   : Yes
Format settings, ReFrames                : 5 frames
Codec ID                                 : V_MPEG4/ISO/AVC
Duration                                 : 1h 41mn
Bit rate                                 : 4 663 Kbps
Width                                    : 1 280 pixels
Height                                   : 536 pixels
Display aspect ratio                     : 2.40:1
Frame rate                               : 23.976 fps
Color space                              : YUV
Chroma subsampling                       : 4:2:0
Bit depth                                : 8 bits
Scan type                                : Progressive
Bits/(Pixel*Frame)                       : 0.283
Stream size                              : 3.21 GiB (72%)

Audio #1
ID                                       : 2
Format                                   : DTS
Format/Info                              : Digital Theater Systems
Codec ID                                 : A_DTS
Duration                                 : 1h 41mn
Bit rate mode                            : Constant
Bit rate                                 : 1 510 Kbps
Channel(s)                               : 6 channels
Channel positions                        : Front: L C R, Side: L R, LFE
Sampling rate                            : 48.0 KHz
Bit depth                                : 24 bits
Compression mode                         : Lossy
Stream size                              : 1.07 GiB (24%)
Title                                    : DTS
Language                                 : English
Default                                  : Yes
Forced                                   : No

Audio #2
ID                                       : 3
Format                                   : MPEG Audio
Format version                           : Version 1
Format profile                           : Layer 3
Mode                                     : Joint stereo
Mode extension                           : MS Stereo
Codec ID                                 : A_MPEG/L3
Codec ID/Hint                            : MP3
Duration                                 : 1h 41mn
Bit rate mode                            : Constant
Bit rate                                 : 128 Kbps
Channel(s)                               : 2 channels
Sampling rate                            : 48.0 KHz
Compression mode                         : Lossy
Stream size                              : 92.7 MiB (2%)
Writing library                          : LAME3.99r
Encoding settings                        : -m j -V 4 -q 2 -lowpass 17 -b 128
Language                                 : Spanish
Default                                  : No
Forced                                   : No

Text #1
ID                                       : 4
Format                                   : UTF-8
Codec ID                                 : S_TEXT/UTF8
Codec ID/Info                            : UTF-8 Plain Text
Language                                 : Spanish
Default                                  : Yes
Forced                                   : No


TRAILER:




Enlaces De Descarga


Shinseiki86@
Ralph El Demoledor 720p Dual Ing-Lat
16 Puntos Score: 8/10
Visitas: 2395 Favoritos: 5
Ver los usuarios que votaron...
7 Comentarios Ralph El Demoledor 720p Dual Ing-Lat
Cita elpijudo: Mostrar
la voz de la ni?
como hago para habrir los link despues que dio fin alos anuncios no habre nada
Cita hernanrodr: Mostrar

Inicialmente te debe aparecer la siguiente imagen.


Cuando le das clic, te aparece una ventana emergente con publicidad, la cual no puedes cerrar hasta que se habiliten los enlaces.



Si tienes un programa para bloquear publicidad es muy probable que no te funcione.
Para dejar un comentario Registrate! o.. eres ya usuario? Accede!